Я подарю тебе любовь (Игорь Кечаев) [2014, Мелодрама, HDTVRip]

Ответить на тему
 
Автор Сообщение

user ®

Стаж: 7 лет 7 месяцев

Сообщений: 20008

Пост Пост: #1 от 28-Авг-2014 00:05

[Цитировать]

Название: Я подарю тебе любовь
Жанр: Мелодрама
Год выпуска: 2014
Продолжительность: 01:29:50
Режиссёр: Игорь Кечаев
В ролях: Елена Дудина, Александр Пашков, Олеся Бойко, Тамара Сёмина, Степан Бекетов
Описание: Борис призван на срочную службу в "горячую точку". Дома его ждет невеста Лариса, но вскоре приходит письмо, в котором сообщается, что он пропал без вести. Друг Бориса Николай, который был тайно влюблен в Ларису, начинает настойчиво ухаживать за ней и наконец делает предложение. Девушка вынуждена его принять. Накануне ее свадьбы неожиданно возвращается Борис. Их чувства друг к другу не остыли, но узнав, что возлюбленная собирается замуж, молодой человек снова исчезает…
Сэмпл: http://multi-up.com/995049
Качество видео: HDTVRip [исходник HDTVRip 720p]
Формат видео: AVI
Видео: 720x400 (1.80:1), 25 fps, XviD build 73 ~1021 kbps avg, 0.14 bit/pixel
Аудио: 48 kHz, MPEG Layer 3, 2 ch, ~128.00 kbps avg
MediaInfo
Общее
Полное имя : D:ТоррентМОЯ РАЗДАЧАЯ подарю тебе любовьYa.podaryu.tebe.lyubov.HDTVRip.Шкипер.avi
Формат : AVI
Формат/Информация : Audio Video Interleave
Размер файла : 745 Мбайт
Продолжительность : 1 ч. 29 м.
Общий поток : 1160 Кбит/сек
Программа кодирования : VirtualDubMod 1.5.10.3 | www.virtualdub-fr.org || (build 2550/release)
Библиотека кодирования : VirtualDubMod build 2550/release
Видео
Идентификатор : 0
Формат : MPEG-4 Visual
Профиль формата : Advanced Simple@L5
Параметр BVOP формата : 1
Параметр QPel формата : Нет
Параметр GMC формата : Без точки перехода
Параметр матрицы формата : Default (MPEG)
Идентификатор кодека : XVID
Идентификатор кодека/Подсказка : XviD
Продолжительность : 1 ч. 29 м.
Битрейт : 1022 Кбит/сек
Ширина : 720 пикселей
Высота : 400 пикселей
Соотношение сторон : 16:9
Частота кадров : 25,000 кадров/сек
Цветовое пространство : YUV
Субдискретизация насыщенности : 4:2:0
Битовая глубина : 8 бит
Тип развёртки : Прогрессивная
Метод сжатия : С потерями
Бит/(Пиксели*Кадры) : 0.142
Размер потока : 657 Мбайт (88%)
Библиотека кодирования : XviD 73
Аудио
Идентификатор : 1
Формат : MPEG Audio
Версия формата : Version 1
Профиль формата : Layer 3
Идентификатор кодека : 55
Идентификатор кодека/Подсказка : MP3
Продолжительность : 1 ч. 29 м.
Вид битрейта : Постоянный
Битрейт : 128 Кбит/сек
Каналы : 2 канала
Частота : 48,0 КГц
Метод сжатия : С потерями
Размер потока : 82,2 Мбайт (11%)
Выравнивание : Соединение по промежуткам
Продолжительность промежутка : 40 мс. (1,00 видеокадр)
Время предзагрузки промежутка : 504 мс.
Библиотека кодирования : LAME3.99r
Настройки программы : -m s -V 4 -q 0 -lowpass 17 -b 128
Скриншот c названием фильма Скриншоты
Скачать

Скачать торрент!

Как скачивать? · Что такое торрент? · Рейтинг и ограничения

Сайт не распространяет и не хранит электронные версии произведений, а лишь предоставляет доступ к создаваемому пользователями каталогу ссылок на торрент-файлы, которые содержат только списки хеш-сумм

[Профиль] [ЛС]
Показать сообщения:    
Ответить на тему

Текущее время: Сегодня 15:37

Часовой пояс: GMT + 4



Вы не можете начинать темы
Вы не можете отвечать на сообщения
Вы не можете редактировать свои сообщения
Вы не можете удалять свои сообщения
Вы не можете голосовать в опросах
Вы не можете прикреплять файлы к сообщениям
Вы не можете скачивать файлы