Русалка / Мамула / Mamula / Nymph (Милан Тодорович / Milan Todorovic ) [2014, Сербия, ужасы, фэнтези, HDRip] DVO (den904 & DeadSno)

Ответить на тему
 
Автор Сообщение

user ®

Стаж: 7 лет 7 месяцев

Сообщений: 20008

Пост Пост: #1 от 27-Авг-2014 08:20

[Цитировать]

Русалка / Мамула / Mamula / Nymph
Слоган: "Это опасное место. Отправляйтесь куда-нибудь ещё."
Страна: Сербия
Жанр: ужасы, фэнтези
Год выпуска: 2014
Продолжительность: 01:34:13
Перевод: Любительский (двухголосый закадровый) [ОХ! Колобок INC.]
Cубтитры: нет
Оригинальная аудиодорожка: нет
Режиссер: Милан Тодорович / Milan Todorovic
В ролях: Кристина Клебе, Франко Неро, Наталия Гуслистая, Драган Мичанович, Миодраг Крстович, Слободан Стефанович, Елена Ракочевич, София Ражович, Зорана Костич Обрадович, Янко Чекич.
Описание: Две американки приезжают к своему однокурснику из колледжа на отдых в Черногорию. Впереди ждет весёлый отдых и беззаботная неделя, как говорится - солнце, море, пляж. Но однажды, проплывая мимо загадочного острова-крепости Мамула, они решают заглянуть туда. Но у Мамулы свои страшные секреты. Остров не совсем необитаем. И встреча с его обитателями несёт неминуемую смерть, ведь их голоса поют для тебя страшную и прекрасную песню ужаса и зовут прямо в ад...


скачать СЕМПЛ с multi-up
Озвучка: den904 & DeadSno
Перевод: Ворон
Работа со звуком: Гуннлауг
Качество видео: HDRip
Формат видео: AVI
Видео: 720x400 (1.80:1), 24 fps, XviD build 50 ~1616 kbps avg, 0.23 bit/pixel
Аудио: 48 kHz, AC3 Dolby Digital, 2/0 (L,R) ch, ~192 kbps
MediaInfo
Format : AVI
Format/Info : Audio Video Interleave
File size : 1.20 GiB
Duration : 1h 34mn
Overall bit rate : 1 818 Kbps
Writing application : VirtualDubMod 1.5.10.3 | www.virtualdub-fr.org || (build 2550/release)
Writing library : VirtualDubMod build 2550/release
Video #0
ID : 0
Format : MPEG-4 Visual
Format profile : Advanced Simple@L5
Format settings, BVOP : 2
Format settings, QPel : No
Format settings, GMC : No warppoints
Format settings, Matrix : Default (MPEG)
Codec ID : XVID
Codec ID/Hint : XviD
Duration : 1h 34mn
Bit rate : 1 617 Kbps
Width : 720 pixels
Height : 400 pixels
Display aspect ratio : 16:9
Frame rate : 24.000 fps
Color space : YUV
Chroma subsampling : 4:2:0
Bit depth : 8 bits
Scan type : Progressive
Compression mode : Lossy
Bits/(Pixel*Frame) : 0.234
Stream size : 1.06 GiB (89%)
Writing library : XviD 1.2.1 (UTC 2008-12-04)
Audio #1
ID : 1
Format : AC-3
Format/Info : Audio Coding 3
Mode extension : CM (complete main)
Codec ID : 2000
Duration : 1h 34mn
Bit rate mode : Constant
Bit rate : 192 Kbps
Channel(s) : 2 channels
Channel positions : Front: L R
Sampling rate : 48.0 KHz
Bit depth : 16 bits
Compression mode : Lossy
Stream size : 129 MiB (11%)
Alignment : Split accross interleaves
Interleave, duration : 42 ms (1.00 video frame)
Interleave, preload duration : 500 ms
Скриншот c названием фильма Скриншоты Релиз от:
Скачать

Скачать торрент!

Как скачивать? · Что такое торрент? · Рейтинг и ограничения

Сайт не распространяет и не хранит электронные версии произведений, а лишь предоставляет доступ к создаваемому пользователями каталогу ссылок на торрент-файлы, которые содержат только списки хеш-сумм

[Профиль] [ЛС]
Показать сообщения:    
Ответить на тему

Текущее время: Сегодня 06:01

Часовой пояс: GMT + 4



Вы не можете начинать темы
Вы не можете отвечать на сообщения
Вы не можете редактировать свои сообщения
Вы не можете удалять свои сообщения
Вы не можете голосовать в опросах
Вы не можете прикреплять файлы к сообщениям
Вы не можете скачивать файлы