Храбрый Лягушонок / The Brave Frog (Майкл Рейнольдс / Michael Reynolds) [1989, приключения, детский, семейный, DVDRip] AVO (Иванов) + Eng

Ответить на тему
 
Автор Сообщение

user ®

Стаж: 13 лет

Сообщений: 15041

Пост Пост: #1 от 27-Авг-2014 05:10

[Цитировать]

Храбрый Лягушонок / The Brave Frog -Страна: Япония, США
Жанр: приключения, детский, семейный
Продолжительность: 01:31:14
Год выпуска: 1989
Перевод: Авторский (одноголосый закадровый) - Михаил Иванов-Режиссёр: Майкл Рейнольдс / Michael Reynolds
Роли озвучивали: Аксель Робертс, Нина Лав, Кэмми Луис, Риба Вест, Мерл Пирсон, Леонард Пайк, А. Грегори, Ричард Дин, Рей Майклс-Описание: Мультфильм, созданный на основе японского мультсериала "Kerokko Demetan", повествует об истории маленького древесного лягушонка Джонатана и его лучшего друга Пуки, дочери главы Радужного Пруда, Леопольда. Злой и беспощадный, он запрещает ей водиться с выходцем из бедной семьи, попутно устраивая так, чтобы семья древесных лягушек не могла больше оставаться в Радужном Пруду. Джонатана и Пуки ждет множество опасных приключений, но для настоящей дружбы и любви нет никаких преград.-Доп. информация: Рип: анвад
- За исходный DVD5 (Custom) и DVD R1 большое спасибо xfiles, Maidaneh.
- За исходную оцифровку перевода Михаила Иванова с VHS спасибо bora86bora.
- Работа со звуком - xfiles.-Семпл-Качество: DVDRip
Формат: AVI
Видео: 688x528 (4:3), 23.976 fps, XviD 65 ~1747 kbps avg, 0.201 bit/pixel
Аудио 1: Русский, 48.0 KHz, AC3, 1 ch, 192 kbps - Одноголосый закадровый | Михаил Иванов | VHS
Аудио 2: English, 48.0 KHz, AC3, 1 ch, 192 kbps
Субтитры: нет--

Подробные технические данные
ОбщееПолное имя : H:\THE_BRAVE_FROG 1989(AVO_Eng).aviФормат : AVIФормат/Информация : Audio Video InterleaveРазмер файла : 1,37 ГбайтПродолжительность : 1 ч. 31 м.Общий поток : 2145 Кбит/секПрограмма кодирования : VirtualDubMod 1.5.10.3 | www.virtualdub-fr.org || (build 2550/release)Библиотека кодирования : VirtualDubMod build 2550/release
ВидеоИдентификатор : 0Формат : MPEG-4 VisualПрофиль формата : Advanced Simple@L5Параметр BVOP формата : 2Параметр QPel формата : НетПараметр GMC формата : Без точки переходаПараметр матрицы формата : ВыборочнаяИдентификатор кодека : XVIDИдентификатор кодека/Подсказка : XviDПродолжительность : 1 ч. 31 м.Битрейт : 1747 Кбит/секШирина : 688 пикселейВысота : 528 пикселейСоотношение сторон : 4:3Частота кадров : 23,976 кадра/секЦветовое пространство : YUVСубдискретизация насыщенности : 4:2:0Битовая глубина : 8 битТип развёртки : ПрогрессивнаяМетод сжатия : С потерямиБит/(Пиксели*Кадры) : 0.201Размер потока : 1,11 Гбайт (81%)Библиотека кодирования : XviD 65
Аудио #1Идентификатор : 1Формат : AC-3Формат/Информация : Audio Coding 3Расширение режима : CM (complete main)Параметр Endianness формата : BigИдентификатор кодека : 2000Продолжительность : 1 ч. 31 м.Вид битрейта : ПостоянныйБитрейт : 192 Кбит/секКаналы : 1 каналРасположение каналов : Front: CЧастота : 48,0 КГцБитовая глубина : 16 битМетод сжатия : С потерямиРазмер потока : 125 Мбайт (9%)Выравнивание : Разделение по промежуткамПродолжительность промежутка : 42 мс. (1,00 видеокадр)Время предзагрузки промежутка : 500 мс.
Аудио #2Идентификатор : 2Формат : AC-3Формат/Информация : Audio Coding 3Расширение режима : CM (complete main)Параметр Endianness формата : BigИдентификатор кодека : 2000Продолжительность : 1 ч. 31 м.Вид битрейта : ПостоянныйБитрейт : 192 Кбит/секКаналы : 1 каналРасположение каналов : Front: CЧастота : 48,0 КГцБитовая глубина : 16 битМетод сжатия : С потерямиРазмер потока : 125 Мбайт (9%)Выравнивание : Разделение по промежуткамПродолжительность промежутка : 42 мс. (1,00 видеокадр)Время предзагрузки промежутка : 500 мс.
Скриншоты
Скачать

Скачать торрент! Храбрый Лягушонок / The Brave Frog (Майкл Рейнольдс / Michael Reynolds) [1989, приключения, детский, семейный, DVDRip] AVO (Иванов) + Eng

Как скачивать? · Что такое торрент? · Рейтинг и ограничения

Сайт не распространяет и не хранит электронные версии произведений, а лишь предоставляет доступ к создаваемому пользователями каталогу ссылок на торрент-файлы, которые содержат только списки хеш-сумм

[Профиль] [ЛС]
Показать сообщения:    
Ответить на тему

Текущее время: Сегодня 00:22

Часовой пояс: GMT + 4



Вы не можете начинать темы
Вы не можете отвечать на сообщения
Вы не можете редактировать свои сообщения
Вы не можете удалять свои сообщения
Вы не можете голосовать в опросах
Вы не можете прикреплять файлы к сообщениям
Вы не можете скачивать файлы