Приключения Бакару Банзая в восьмом измерении / The Adventures of Buckaroo Banzai Across the 8th Dimension (У. Д. Рихтер / W.D. Richter) [1984, США, приключения, фантастика, комедия, BDRip 1080p] DVO (НТВ+) + Sub Eng + Original Eng

Ответить на тему
 
Автор Сообщение

user ®

Стаж: 7 лет 7 месяцев

Сообщений: 20008

Пост Пост: #1 от 27-Авг-2014 05:10

[Цитировать]

Приключения Бакару Банзая в восьмом измерении / The Adventures of Buckaroo Banzai Across the 8th Dimension
Страна: США
Жанр: приключения, фантастика, комедия
Год выпуска: 1984
Продолжительность: 01:42:35
-
Перевод: Профессиональный (двухголосый закадровый) НТВ+
Cубтитры: английские
Оригинальная аудиодорожка: английский
-
Режиссер: У. Д. Рихтер / W.D. Richter
В ролях: Питер Уэллер, Джон Литгоу, Эллен Баркин, Джефф Голдблюм, Кристофер Ллойд, Льюис Смит, Розалинд Кэш, Роберт Ито, Пепе Серна, Рональд Лейси
-
Описание: Главный герой фильма, Бакару Банзай — молодой учёный, нейрохирург, авантюрист и музыкант, который играет в своей рок-группе «The Hong Kong Cavaliers». Он преодолевает барьер восьмого измерения за рулём своей экспериментальной машины и борется за мир со злым красным Лектроидом с планеты 10.
-

-
Сэмпл: https://www.sendspace.com/file/gzrmik
-
Тип релиза: BDRip 1080p
Контейнер: MKV
Видео: 1920x816p (2.35:1), 23.976 fps, 12200 kbps
Аудио 1: русский / AC3 / 2.0 / 48 kHz / 192 kbps / 16 bit || RUS
Аудио 2: английский / DTS / 5.1 / 48 kHz / 1509 kbps / 24 bit || ENG
Формат субтитров: softsub (SRT)
Главы: есть
Доп. информация
Исходник скачан из сети, русская зв. дорожка отсюда [url=http://***/forum/viewtopic.php?t=4659537]http://***/forum/viewtopic.php?t=4659537[/url]
MediaInfo
General
Unique ID : 191143685454815152291942549591476366151 (0x8FCCEF4BC33D3E73B6B36F69C3CF6B47)
Complete name : C:\Users\ALEX\Downloads\Фильмы\HD\The Adventures of Buckaroo Banzai Across the 8th Dimension.1984.BDRip.1080p.Rus.Eng.Chpt.mkv
Format : Matroska
Format version : Version 4 / Version 2
File size : 9.97 GiB
Duration : 1h 42mn
Overall bit rate : 13.9 Mbps
Encoded date : UTC 2014-08-23 19:21:11
Writing application : mkvmerge v6.6.0 ('The Edge Of The In Between') built on Dec 1 2013 17:55:00
Writing library : libebml v1.3.0 + libmatroska v1.4.1
Video
ID : 1
Format : AVC
Format/Info : Advanced Video Codec
Format profile : High@L4.1
Format settings, CABAC : Yes
Format settings, ReFrames : 5 frames
Codec ID : V_MPEG4/ISO/AVC
Duration : 1h 42mn
Bit rate : 12.2 Mbps
Width : 1 920 pixels
Height : 816 pixels
Display aspect ratio : 2.35:1
Frame rate mode : Constant
Frame rate : 23.976 fps
Color space : YUV
Chroma subsampling : 4:2:0
Bit depth : 8 bits
Scan type : Progressive
Bits/(Pixel*Frame) : 0.325
Stream size : 8.56 GiB (86%)
Writing library : x264 core 140 r2377 1ca7bb9
Encoding settings : cabac=1 / ref=5 / deblock=1:-3:-3 / analyse=0x3:0x113 / me=umh / subme=8 / psy=1 / psy_rd=1.00:0.00 / mixed_ref=1 / me_range=16 / chroma_me=1 / trellis=1 / 8x8dct=1 / cqm=0 / deadzone=21,11 / fast_pskip=1 / chroma_qp_offset=-2 / threads=18 / lookahead_threads=3 / sliced_threads=0 / nr=0 / decimate=1 / interlaced=0 / bluray_compat=0 / constrained_intra=0 / bframes=3 / b_pyramid=2 / b_adapt=2 / b_bias=0 / direct=3 / weightb=1 / open_gop=0 / weightp=2 / keyint=240 / keyint_min=24 / scenecut=40 / intra_refresh=0 / rc_lookahead=50 / rc=2pass / mbtree=1 / bitrate=12220 / ratetol=1.0 / qcomp=0.60 / qpmin=0 / qpmax=69 / qpstep=4 / cplxblur=20.0 / qblur=0.5 / ip_ratio=1.40 / aq=1:1.00
Language : English
Default : Yes
Forced : No
Audio #1
ID : 2
Format : AC-3
Format/Info : Audio Coding 3
Mode extension : CM (complete main)
Format settings, Endianness : Big
Codec ID : A_AC3
Duration : 1h 42mn
Bit rate mode : Constant
Bit rate : 192 Kbps
Channel(s) : 2 channels
Channel positions : Front: L R
Sampling rate : 48.0 KHz
Bit depth : 16 bits
Compression mode : Lossy
Stream size : 141 MiB (1%)
Title : DVO NTV+
Language : Russian
Default : Yes
Forced : No
Audio #2
ID : 3
Format : DTS
Format/Info : Digital Theater Systems
Mode : 16
Format settings, Endianness : Big
Codec ID : A_DTS
Duration : 1h 42mn
Bit rate mode : Constant
Bit rate : 1 509 Kbps
Channel(s) : 6 channels
Channel positions : Front: L C R, Side: L R, LFE
Sampling rate : 48.0 KHz
Bit depth : 24 bits
Compression mode : Lossy
Stream size : 1.08 GiB (11%)
Title : Original
Language : English
Default : No
Forced : No
Text
ID : 4
Format : UTF-8
Codec ID : S_TEXT/UTF8
Codec ID/Info : UTF-8 Plain Text
Title : Full
Language : English
Default : No
Forced : No
Menu
00:00:00.000 : en:00:00:00.000
00:07:01.421 : en:00:07:01.421
00:17:15.201 : en:00:17:15.201
00:24:25.547 : en:00:24:25.547
00:33:18.747 : en:00:33:18.747
00:41:50.258 : en:00:41:50.258
00:50:46.335 : en:00:50:46.335
00:58:31.591 : en:00:58:31.591
01:06:21.561 : en:01:06:21.561
01:14:46.649 : en:01:14:46.649
01:23:53.153 : en:01:23:53.153
01:34:14.232 : en:01:34:14.232
Скриншоты
Скачать

Скачать торрент!

Как скачивать? · Что такое торрент? · Рейтинг и ограничения

Сайт не распространяет и не хранит электронные версии произведений, а лишь предоставляет доступ к создаваемому пользователями каталогу ссылок на торрент-файлы, которые содержат только списки хеш-сумм

[Профиль] [ЛС]
Показать сообщения:    
Ответить на тему

Текущее время: Сегодня 20:01

Часовой пояс: GMT + 4



Вы не можете начинать темы
Вы не можете отвечать на сообщения
Вы не можете редактировать свои сообщения
Вы не можете удалять свои сообщения
Вы не можете голосовать в опросах
Вы не можете прикреплять файлы к сообщениям
Вы не можете скачивать файлы