Муж счастливой женщины (Артем Марков, Владимир Кильбург) [2013, Россия, мелодрама, HDTV 1080i]

Ответить на тему
 
Автор Сообщение

user ®

Стаж: 7 лет 7 месяцев

Сообщений: 20008

Пост Пост: #1 от 26-Авг-2014 23:25

[Цитировать]

Муж счастливой женщины Страна: Россия
Жанр: мелодрама
Год выпуска: 2013
Премьера (РФ): 24 августа 2014
Продолжительность: 01:25:19
Перевод: Не требуется
Cубтитры: нет
Режиссер: Артем Марков, Владимир Кильбург
В ролях: Ирина Медведева, Михаил Мамаев, Любовь Германова, Сергей Колесников. Веста Буркот, Янина Бугрова, Андрей Попович, Илья Соколовский, Александр Пашутин, Валентина Шарыкина
Описание:
Александр — сильный, уверенный мужчина. Ему 40 лет. Жизнь налажена: хорошая работа в охранном агентстве и жена-красавица. Именно в таком порядке: на первом месте — работа, главное в жизни мужчины.
Но однажды жена приходит домой с роскошным букетом цветом. А на другой день исчезает, оставив записку, в которой пишет, что «уехала к маме… нужно немного пожить отдельно». Александр в шоке: жена всегда была ему «надежным тылом»! что происходит?!
Шеф Александра просит его «не в службу, а в дружбу» проводить знакомую девушку пару раз вечерком после работы. К ней пристает какой-то хулиган. Нужно ему наглядно продемонстрировать, что у этой девушки есть защита.
Провожая девушку, в парке Александр встречает жену с кудрявым кавалером. Кавалер бросается в драку на Александра. Девушка бросается в драку на кудрявого кавалера, защищая Александра…
Нет ничего легче, чем попасть в любовный четырехугольник. Особенно, когда в твою жену влюбляется поэт-сердцеед, осыпает ее цветами и комплиментами, которых она уже давно перестала ждать от тебя, а ты сам становишься жертвой хитроумного женского плана и чужим женихом поневоле!
Но настоящий мужчина всегда найдет верный путь…

Доп. информация: несколько секунд не сначала
Кинопоиск: http://www.kinopoisk.ru/film/824969/
Сэмпл: http://sendfile.su/1015074
Тип релиза: HDTV 1080i
Контейнер: TS
Видео: AVC/H.264, PAL, 1920x1080 (16:9), 9554 Кбит/сек, 25.000 fps
Аудио: русский, MP-2, 48000 Hz, 192 Кбит/сек, 2 ch
MediaInfo
Видео
Идентификатор : 306 (0x132)
Идентификатор меню : 1 (0x1)
Формат : AVC
Формат/Информация : Advanced Video Codec
Профиль формата : High@L4.0
Параметр CABAC формата : Да
Параметр ReFrames формата : 4 кадра
Параметр GOP формата : M=4, N=28
Идентификатор кодека : 27
Продолжительность : 1 ч. 25 м.
Битрейт : 9554 Кбит/сек
Ширина : 1920 пикселей
Высота : 1080 пикселей
Соотношение сторон : 16:9
Частота кадров : 25,000 кадров/сек
Стандарт вещания : Component
Цветовое пространство : YUV
Субдискретизация насыщенности : 4:2:0
Битовая глубина : 8 бит
Тип развёртки : Чересстрочная
Порядок развёртки : Верхнее поле первое
Бит/(Пиксели*Кадры) : 0.184
Размер потока : 5,69 Гбайт (93%)
Основные цвета : BT.709
Характеристики трансфера : BT.709
Коэффициенты матрицы : BT.709
Аудио
Идентификатор : 406 (0x196)
Идентификатор меню : 1 (0x1)
Формат : MPEG Audio
Версия формата : Version 1
Профиль формата : Layer 2
Идентификатор кодека : 3
Продолжительность : 1 ч. 25 м.
Вид битрейта : Постоянный
Битрейт : 192 Кбит/сек
Каналы : 2 канала
Частота : 48,0 КГц
Метод сжатия : С потерями
Размер потока : 117 Мбайт (2%)
Язык : English
Скриншот с названием фильма Скриншоты
Скачать

Скачать торрент!

Как скачивать? · Что такое торрент? · Рейтинг и ограничения

Сайт не распространяет и не хранит электронные версии произведений, а лишь предоставляет доступ к создаваемому пользователями каталогу ссылок на торрент-файлы, которые содержат только списки хеш-сумм

[Профиль] [ЛС]
Показать сообщения:    
Ответить на тему

Текущее время: Сегодня 00:12

Часовой пояс: GMT + 4



Вы не можете начинать темы
Вы не можете отвечать на сообщения
Вы не можете редактировать свои сообщения
Вы не можете удалять свои сообщения
Вы не можете голосовать в опросах
Вы не можете прикреплять файлы к сообщениям
Вы не можете скачивать файлы