Жар города / Безумный город / Заваруха в городе / City Heat (Ричард Бенджамин / Richard Benjamin) [1984, США, Боевик, Комедия, HDTVRip 720p] MVO + 2х AVO (Михалев, Володарский) + Original Eng

Ответить на тему
 
Автор Сообщение

user ®

Стаж: 7 лет 7 месяцев

Сообщений: 20008

Пост Пост: #1 от 26-Авг-2014 23:25

[Цитировать]

Жар города / Безумный город / Заваруха в городе / City Heat
Страна: США
Студия: Warner Bros.
Жанр: Боевик, Комедия
Год выпуска: 1984
Продолжительность: 01:30:18
Перевод 1: Профессиональный (многоголосый закадровый) - НТВ+ (по заказу НТВ)
Перевод 2: Авторский (одноголосый закадровый) - А. Михалев
Перевод 3: Авторский (одноголосый закадровый) - Л. Володарский
Cубтитры: нет
Оригинальная аудиодорожка: английский
Режиссер: Ричард Бенджамин / Richard Benjamin
В ролях: Клинт Иствуд, Берт Рейнолдс, Джейн Александер, Мэдлин Кан, Рип Торн, Ирэн Кара, Ричард Раундтри, Тони Ло Бьянко, Уильям Сандерсон (Clint Eastwood, Burt Reynolds, Jane Alexander, Madeline Kahn, Rip Torn, Irene Cara, Richard Roundtree, Tony Lo Bianco, William Sanderson)
Описание: Полицейский (Иствуд) и частный детектив (Рейндолдс) объединяются, несмотря на некоторую взаимную неприязнь, чтобы побороть преступный клан. Действие этой приключенческой криминальной комедии происходит в 30-е годы в Канзас-сити. Известный комедиограф, режиссер и сценарист Блэйк Эдвардс выступил соавтором сценария под псевдонимом Сэм О. Браун. (Иванов М.)
Доп. информация: Автор рипа - muhhd. Добавлены три русские дорожки, взятые из [url=http://***/forum/viewtopic.php?t=2430845]раздачи kwn[/url], за что ему большое спасибо! На протяжении всего фильма присутствует лого телеканала.
Сэмпл
Тип релиза: HDTVRip 720p
Контейнер: MKV
Видео: 1280x720p, 25 fps, x264, 6218 kbps
Аудио 1: Russian - НТВ (Dolby AC3, 2 ch) 192 Kbps / 48 000 Hz
Аудио 2: Russian - Михалев (Dolby AC3, 2 ch) 192 Kbps / 48 000 Hz
Аудио 3: Russian - Володарский (Dolby AC3, 2 ch) 192 Kbps / 48 000 Hz
Аудио 4: English (Dolby AC3, 2 ch) 192 Kbps / 48 000 Hz
MediaInfo
Уникальный идентификатор : 180348065053848385672788402181680256586 (0x87ADC61DA6DB9779AC0446DA3851D64A)
Полное имя : City.Heat.(1984).HDTVRip.720p.x264.RUS.ENG.AC3.mkv
Формат : Matroska
Версия формата : Version 4 / Version 2
Размер файла : 4,41 Гбайт
Продолжительность : 1 ч. 30 м.
Общий поток : 6990 Кбит/сек
Название фильма : City Heat (1984) HDTVRip 720p
Дата кодирования : UTC 2014-08-23 13:54:51
Программа кодирования : mkvmerge v7.1.0 ('Good Love') 32bit built on Jul 27 2014 12:59:18
Библиотека кодирования : libebml v1.3.0 + libmatroska v1.4.1
DURATION : 01:30:18.144000000
NUMBER_OF_FRAMES : 169317
NUMBER_OF_BYTES : 130035456
_STATISTICS_WRITING_APP : mkvmerge v7.1.0 ('Good Love') 32bit built on Jul 27 2014 12:59:18
_STATISTICS_WRITING_DATE_UTC : 2014-08-23 13:54:51
_STATISTICS_TAGS : BPS DURATION NUMBER_OF_FRAMES NUMBER_OF_BYTES
Видео
Идентификатор : 1
Формат : AVC
Формат/Информация : Advanced Video Codec
Профиль формата : High@L4.1
Параметр CABAC формата : Да
Параметр ReFrames формата : 8 кадров
Идентификатор кодека : V_MPEG4/ISO/AVC
Продолжительность : 1 ч. 30 м.
Битрейт : 6218 Кбит/сек
Ширина : 1280 пикселей
Высота : 720 пикселей
Соотношение сторон : 16:9
Режим частоты кадров : Постоянный
Частота кадров : 25,000 кадров/сек
Цветовое пространство : YUV
Субдискретизация насыщенности : 4:2:0
Битовая глубина : 8 бит
Тип развёртки : Прогрессивная
Бит/(Пиксели*Кадры) : 0.270
Размер потока : 3,84 Гбайт (87%)
Библиотека кодирования : x264 core 142 r2431 ac76440
Настройки программы : cabac=1 / ref=8 / deblock=1:-3:-3 / analyse=0x3:0x113 / me=umh / subme=9 / psy=1 / psy_rd=1.00:0.00 / mixed_ref=1 / me_range=32 / chroma_me=1 / trellis=2 / 8x8dct=1 / cqm=0 / deadzone=21,11 / fast_pskip=0 / chroma_qp_offset=-2 / threads=6 / lookahead_threads=1 / sliced_threads=0 / nr=0 / decimate=1 / interlaced=0 / bluray_compat=0 / constrained_intra=0 / bframes=6 / b_pyramid=2 / b_adapt=2 / b_bias=0 / direct=3 / weightb=1 / open_gop=0 / weightp=2 / keyint=250 / keyint_min=24 / scenecut=40 / intra_refresh=0 / rc=2pass / mbtree=0 / bitrate=6218 / ratetol=1.0 / qcomp=0.60 / qpmin=10 / qpmax=51 / qpstep=4 / cplxblur=20.0 / qblur=0.5 / ip_ratio=1.40 / pb_ratio=1.30 / aq=1:1.00
Язык : English
Default : Да
Forced : Нет
DURATION : 01:30:18.040000000
NUMBER_OF_FRAMES : 135451
NUMBER_OF_BYTES : 4211939340
_STATISTICS_WRITING_APP : mkvmerge v7.1.0 ('Good Love') 32bit built on Jul 27 2014 12:59:18
_STATISTICS_WRITING_DATE_UTC : 2014-08-23 13:54:51
_STATISTICS_TAGS : BPS DURATION NUMBER_OF_FRAMES NUMBER_OF_BYTES
Аудио #1
Идентификатор : 2
Формат : AC-3
Формат/Информация : Audio Coding 3
Расширение режима : CM (complete main)
Параметр Endianness формата : Big
Идентификатор кодека : A_AC3
Продолжительность : 1 ч. 30 м.
Вид битрейта : Постоянный
Битрейт : 192 Кбит/сек
Каналы : 2 канала
Расположение каналов : Front: L R
Частота : 48,0 КГц
Битовая глубина : 16 бит
Метод сжатия : С потерями
Размер потока : 124 Мбайт (3%)
Заголовок : НТВ
Язык : Russian
Default : Да
Forced : Нет
Аудио #2
Идентификатор : 3
Формат : AC-3
Формат/Информация : Audio Coding 3
Расширение режима : CM (complete main)
Параметр Endianness формата : Big
Идентификатор кодека : A_AC3
Продолжительность : 1 ч. 30 м.
Вид битрейта : Постоянный
Битрейт : 192 Кбит/сек
Каналы : 2 канала
Расположение каналов : Front: L R
Частота : 48,0 КГц
Битовая глубина : 16 бит
Метод сжатия : С потерями
Размер потока : 124 Мбайт (3%)
Заголовок : Михалев
Язык : Russian
Default : Нет
Forced : Нет
Аудио #3
Идентификатор : 4
Формат : AC-3
Формат/Информация : Audio Coding 3
Расширение режима : CM (complete main)
Параметр Endianness формата : Big
Идентификатор кодека : A_AC3
Продолжительность : 1 ч. 30 м.
Вид битрейта : Постоянный
Битрейт : 192 Кбит/сек
Каналы : 2 канала
Расположение каналов : Front: L R
Частота : 48,0 КГц
Битовая глубина : 16 бит
Метод сжатия : С потерями
Размер потока : 124 Мбайт (3%)
Заголовок : Володарский
Язык : Russian
Default : Нет
Forced : Нет
Аудио #4
Идентификатор : 5
Формат : AC-3
Формат/Информация : Audio Coding 3
Расширение режима : CM (complete main)
Параметр Endianness формата : Big
Идентификатор кодека : A_AC3
Продолжительность : 1 ч. 30 м.
Вид битрейта : Постоянный
Битрейт : 192 Кбит/сек
Каналы : 2 канала
Расположение каналов : Front: L R
Частота : 48,0 КГц
Битовая глубина : 16 бит
Метод сжатия : С потерями
Размер потока : 124 Мбайт (3%)
Заголовок : Original
Язык : English
Default : Нет
Forced : Нет
Скриншоты
Скачать

Скачать торрент!

Как скачивать? · Что такое торрент? · Рейтинг и ограничения

Сайт не распространяет и не хранит электронные версии произведений, а лишь предоставляет доступ к создаваемому пользователями каталогу ссылок на торрент-файлы, которые содержат только списки хеш-сумм

[Профиль] [ЛС]
Показать сообщения:    
Ответить на тему

Текущее время: Сегодня 12:32

Часовой пояс: GMT + 4



Вы не можете начинать темы
Вы не можете отвечать на сообщения
Вы не можете редактировать свои сообщения
Вы не можете удалять свои сообщения
Вы не можете голосовать в опросах
Вы не можете прикреплять файлы к сообщениям
Вы не можете скачивать файлы