Повелитель зверей / The Beastmaster (Дон Коскарелли / Don Coscarelli) [1982, США, Германия (ФРГ), фэнтези, боевик, приключения, BDRip 720p] 4х AVO (Сербин, Дохалов, Дьяконов, Марченко) + Sub Eng + Original Eng

Ответить на тему
 
Автор Сообщение

user ®

Стаж: 7 лет 7 месяцев

Сообщений: 20008

Пост Пост: #1 от 26-Авг-2014 23:25

[Цитировать]

Повелитель зверей / The Beastmaster
Страна: США, Германия
Жанр: фэнтези, боевик, приключения
Год выпуска: 1982
Продолжительность: 01:58:28
-
Перевод 1: Авторский (одноголосый закадровый) Юрий Сербин
Перевод 2: Авторский (одноголосый закадровый) Вартан Дохалов
Перевод 3: Авторский (одноголосый закадровый) Константин Дьяконов
Перевод 4: Авторский (одноголосый закадровый) Александр Марченко
Cубтитры: английские Full
Оригинальная аудиодорожка: английский
-
Режиссер: Дон Коскарелли / Don Coscarelli
В ролях: Марк Сингер, Таня Робертс, Рип Торн, Джон Эймос, Джош Милрад, Род Лумис, Бен Хаммер, Ральф Стрейт, Билли Джейн, Джанет ДеМэй
-
Описание: Воин по имени Дар после того, как орда жестоких джанов уничтожила его родной посёлок, отправляется искать мести. Отмеченный знаком бога-зверя, он понимает язык птиц и животных, и его спутники — огромный ночной тигр, парочка хитрецов-хорьков и орёл — помогают ему не только сражаться с людьми, но и с неведомыми существами, обитающими в тёмных лесах и сырых подземельях.
-

-
Сэмпл: https://www.sendspace.com/file/jwief3
-
Тип релиза: BDRip 720p
Контейнер: MKV
Видео: 1272x720p (16:9), 23.976 fps, 7 000 Kbps
Аудио 1: русский / AC3 / 2.0 / 48 kHz / 192 kbps / 16 bit || Сербин
Аудио 2: русский / AC3 / 2.0 / 48 kHz / 192 kbps / 16 bit || Дохалов
Аудио 3: русский / AC3 / 5.1 / 48 kHz / 448 kbps / 16 bit || Дьяконов
Аудио 4: русский / AC3 / 2.0 / 48 kHz / 192 kbps / 16 bit || Марченко
Аудио 5: английский / DTS / 5.1 / 48 kHz / 1509 kbps / 24 bit || ENG
Формат субтитров: softsub (SRT)
Главы: есть
Доп. информация
Скачано из сети, английские субтитры добавлены с другого релиза, 3-ая русская зв. дорожка отсюда [url=http://***/forum/viewtopic.php?t=4119236]http://***/forum/viewtopic.php?t=4119236[/url] и подогнана.
MediaInfo
General
Unique ID : 190543027543994243989350501739657831173 (0x8F594093120D9549873BF5FF9EAA2305)
Complete name : C:\Users\ALEX\Downloads\Фильмы\HD\The Beastmaster.1982.BDRip.720p.4xRus.Eng.Sub.Chpt.mkv
Format : Matroska
Format version : Version 4 / Version 2
File size : 7.89 GiB
Duration : 1h 58mn
Overall bit rate : 9 532 Kbps
Encoded date : UTC 2014-08-24 07:46:05
Writing application : mkvmerge v6.6.0 ('The Edge Of The In Between') built on Dec 1 2013 17:55:00
Writing library : libebml v1.3.0 + libmatroska v1.4.1
Video
ID : 1
Format : AVC
Format/Info : Advanced Video Codec
Format profile : High@L4.1
Format settings, CABAC : Yes
Format settings, ReFrames : 8 frames
Codec ID : V_MPEG4/ISO/AVC
Duration : 1h 58mn
Bit rate : 7 000 Kbps
Width : 1 272 pixels
Height : 720 pixels
Display aspect ratio : 16:9
Frame rate mode : Constant
Frame rate : 23.976 fps
Color space : YUV
Chroma subsampling : 4:2:0
Bit depth : 8 bits
Scan type : Progressive
Bits/(Pixel*Frame) : 0.319
Stream size : 5.63 GiB (71%)
Writing library : x264 core 142 r2389+41 02cb608 tMod [8-bit@4:2:0 X86_64]
Encoding settings : cabac=1 / ref=8 / deblock=1:-3:-3 / analyse=0x3:0x113 / me=umh / subme=11 / psy=1 / fade_compensate=0.00 / psy_rd=1.00:0.20 / mixed_ref=1 / me_range=32 / chroma_me=1 / trellis=2 / 8x8dct=1 / cqm=0 / deadzone=21,11 / fast_pskip=0 / chroma_qp_offset=-3 / threads=12 / lookahead_threads=3 / sliced_threads=0 / nr=0 / decimate=0 / interlaced=0 / bluray_compat=0 / constrained_intra=0 / fgo=0 / bframes=12 / b_pyramid=2 / b_adapt=2 / b_bias=0 / direct=3 / weightb=1 / open_gop=0 / weightp=2 / keyint=240 / keyint_min=23 / scenecut=40 / intra_refresh=0 / rc=2pass / mbtree=0 / bitrate=7000 / ratetol=1.0 / qcomp=0.60 / qpmin=0:0:0 / qpmax=69:69:69 / qpstep=4 / cplxblur=20.0 / qblur=0.5 / ip_ratio=1.40 / pb_ratio=1.30 / aq=2:1.00 / aq-sensitivity=10.00 / aq-factor=1.00:1.00:1.00 / aq2=0 / aq3=0
Language : English
Default : Yes
Forced : No
Audio #1
ID : 2
Format : AC-3
Format/Info : Audio Coding 3
Mode extension : CM (complete main)
Format settings, Endianness : Big
Codec ID : A_AC3
Duration : 1h 58mn
Bit rate mode : Constant
Bit rate : 192 Kbps
Channel(s) : 2 channels
Channel positions : Front: L R
Sampling rate : 48.0 KHz
Bit depth : 16 bits
Compression mode : Lossy
Stream size : 163 MiB (2%)
Title : AVO Сербин
Language : Russian
Default : Yes
Forced : No
Audio #2
ID : 3
Format : AC-3
Format/Info : Audio Coding 3
Mode extension : CM (complete main)
Format settings, Endianness : Big
Codec ID : A_AC3
Duration : 1h 58mn
Bit rate mode : Constant
Bit rate : 192 Kbps
Channel(s) : 2 channels
Channel positions : Front: L R
Sampling rate : 48.0 KHz
Bit depth : 16 bits
Compression mode : Lossy
Stream size : 163 MiB (2%)
Title : AVO Дохалов
Language : Russian
Default : No
Forced : No
Audio #3
ID : 4
Format : AC-3
Format/Info : Audio Coding 3
Mode extension : CM (complete main)
Format settings, Endianness : Big
Codec ID : A_AC3
Duration : 1h 58mn
Bit rate mode : Constant
Bit rate : 448 Kbps
Channel(s) : 6 channels
Channel positions : Front: L C R, Side: L R, LFE
Sampling rate : 48.0 KHz
Bit depth : 16 bits
Compression mode : Lossy
Stream size : 380 MiB (5%)
Title : AVO Дьяконов
Language : Russian
Default : No
Forced : No
Audio #4
ID : 5
Format : AC-3
Format/Info : Audio Coding 3
Mode extension : CM (complete main)
Format settings, Endianness : Big
Codec ID : A_AC3
Duration : 1h 58mn
Bit rate mode : Constant
Bit rate : 192 Kbps
Channel(s) : 2 channels
Channel positions : Front: L R
Sampling rate : 48.0 KHz
Bit depth : 16 bits
Compression mode : Lossy
Stream size : 163 MiB (2%)
Title : AVO Марченко
Language : Russian
Default : No
Forced : No
Audio #5
ID : 6
Format : DTS
Format/Info : Digital Theater Systems
Mode : 16
Format settings, Endianness : Big
Codec ID : A_DTS
Duration : 1h 58mn
Bit rate mode : Constant
Bit rate : 1 509 Kbps
Channel(s) : 6 channels
Channel positions : Front: L C R, Side: L R, LFE
Sampling rate : 48.0 KHz
Bit depth : 24 bits
Compression mode : Lossy
Stream size : 1.25 GiB (16%)
Title : Original
Language : English
Default : No
Forced : No
Text
ID : 7
Format : UTF-8
Codec ID : S_TEXT/UTF8
Codec ID/Info : UTF-8 Plain Text
Title : Full
Language : English
Default : No
Forced : No
Menu
00:00:00.000 : en:Chapter 01
00:01:38.056 : en:Chapter 02
00:16:22.147 : en:Chapter 03
00:29:23.762 : en:Chapter 04
00:39:43.839 : en:Chapter 05
00:49:28.632 : en:Chapter 06
00:55:43.757 : en:Chapter 07
01:01:40.697 : en:Chapter 08
01:12:19.335 : en:Chapter 09
01:24:21.014 : en:Chapter 10
01:33:37.695 : en:Chapter 11
01:41:53.690 : en:Chapter 12
01:55:32.425 : en:Chapter 13
Скриншоты
Скачать

Скачать торрент!

Как скачивать? · Что такое торрент? · Рейтинг и ограничения

Сайт не распространяет и не хранит электронные версии произведений, а лишь предоставляет доступ к создаваемому пользователями каталогу ссылок на торрент-файлы, которые содержат только списки хеш-сумм

[Профиль] [ЛС]
Показать сообщения:    
Ответить на тему

Текущее время: Сегодня 06:59

Часовой пояс: GMT + 4



Вы не можете начинать темы
Вы не можете отвечать на сообщения
Вы не можете редактировать свои сообщения
Вы не можете удалять свои сообщения
Вы не можете голосовать в опросах
Вы не можете прикреплять файлы к сообщениям
Вы не можете скачивать файлы