Ползи или умри / Crawl or Die (Оклахома Уорд / Oklahoma Ward) [2014, США, ужасы, фантастика, триллер, WEB-DL 720p] DVO + VO + Original (Eng) + Sub (eng)

Ответить на тему
 
Автор Сообщение

user ®

Стаж: 7 лет 7 месяцев

Сообщений: 20008

Пост Пост: #1 от 26-Авг-2014 23:25

[Цитировать]

Ползи или умри
Crawl or Die
Страна: США
Год выпуска: 2014
Жанр: ужасы, фантастика, триллер
Продолжительность: 01:30:04
Перевод:
Любительский (Двухголосый закадровый) - den904 & DeadSno по переводу МЕГАПЫХАРЬ
Одноголосый закадровый - Xixidok
Оригинальная аудиодорожка: английская
русские субтитры: нет-Режиссёр: Оклахома Уорд: Oklahoma Ward
В главных ролях: Николь Алонсо, Тори Бирн, Томми Болл, Уил Краун, Дэвид Пол Бэйкер, Том Чемберлен, Клейтон Берджесс, Дэвид Зелифф, Ларри Хайт, Мэттью Стивен Крабтри-Описание: После получения задания — защитить последнюю женщину, способную забеременеть, элитное подразделение бойцов оказывается захвачено в бесконечную систему замкнутых подземных туннелей. Команда скоро узнает, что настоящий ужас с непреодолимой силой гонится за ними, а сам туннель становится всё меньше.- -Качество: WEB-DL 720p
Формат: MKV
Видео кодек: AVC
Аудио кодек: АС3
Видео: 1280x720, 23.976 fps, ~4 013 kbps avg, 0.182 bit/pixel
Аудио #1: [RUS] 48 kHz, AC3 Dolby Digital, 2/0 (L,R) ch, ~192 kbps - den904 & DeadSno
Аудио #2: [RUS] 48 kHz, AC3 Dolby Digital, 2/0 (L,R) ch, ~192 kbps - Xixidok
Аудио #3: [ENG] 48 kHz, AC3 Dolby Digital, 3/2 (L,C,R,l,r) + LFE ch, ~384 kbps
субтитры: английские
навигация по главам: 18 глав (именные)
скриншоты MediaInfo
Общее
Уникальный идентификатор : 221953207522697616271063125128392132314 (0xA6FAA2033FBE48CEBCDDD8E65312C6DA)
Полное имя : D:\Im\Ползи или умри\Crawl or Die.2014.WEB-DL 720p.mkv
Формат : Matroska
Версия формата : Version 4 / Version 2
Размер файла : 3,07 Гбайт
Продолжительность : 1 ч. 30 м.
Общий поток : 4878 Кбит/сек
Дата кодирования : UTC 2014-08-24 19:56:42
Программа кодирования : mkvmerge v7.1.0 ('Good Love') 32bit built on Jul 27 2014 12:59:18
Библиотека кодирования : libebml v1.3.0 + libmatroska v1.4.1
DURATION : 01:30:04.640000000
NUMBER_OF_FRAMES : 168895
NUMBER_OF_BYTES : 129711360
_STATISTICS_WRITING_APP : mkvmerge v7.1.0 ('Good Love') 32bit built on Jul 27 2014 12:59:18
_STATISTICS_WRITING_DATE_UTC : 2014-08-24 19:56:42
_STATISTICS_TAGS : BPS DURATION NUMBER_OF_FRAMES NUMBER_OF_BYTES
Видео
Идентификатор : 1
Формат : AVC
Формат/Информация : Advanced Video Codec
Профиль формата : High@L3.1
Параметр CABAC формата : Нет
Параметр ReFrames формата : 2 кадра
Идентификатор кодека : V_MPEG4/ISO/AVC
Продолжительность : 1 ч. 30 м.
Битрейт : 4013 Кбит/сек
Ширина : 1280 пикселей
Высота : 720 пикселей
Соотношение сторон : 16:9
Режим частоты кадров : Постоянный
Частота кадров : 23,976 кадра/сек
Цветовое пространство : YUV
Субдискретизация насыщенности : 4:2:0
Битовая глубина : 8 бит
Тип развёртки : Прогрессивная
Бит/(Пиксели*Кадры) : 0.182
Размер потока : 2,53 Гбайт (82%)
Язык : English
Default : Да
Forced : Нет
Основные цвета : BT.709
Характеристики трансфера : BT.709
Коэффициенты матрицы : BT.709
Аудио #1
Идентификатор : 2
Формат : AC-3
Формат/Информация : Audio Coding 3
Расширение режима : CM (complete main)
Параметр Endianness формата : Big
Идентификатор кодека : A_AC3
Продолжительность : 1 ч. 30 м.
Вид битрейта : Постоянный
Битрейт : 192 Кбит/сек
Каналы : 2 канала
Расположение каналов : Front: L R
Частота : 48,0 КГц
Битовая глубина : 16 бит
Метод сжатия : С потерями
Размер потока : 124 Мбайт (4%)
Заголовок : DVO - den904 & DeadSno)
Язык : Russian
Default : Да
Forced : Нет
Аудио #2
Идентификатор : 3
Формат : AC-3
Формат/Информация : Audio Coding 3
Расширение режима : CM (complete main)
Параметр Endianness формата : Big
Идентификатор кодека : A_AC3
Продолжительность : 1 ч. 30 м.
Вид битрейта : Постоянный
Битрейт : 192 Кбит/сек
Каналы : 2 канала
Расположение каналов : Front: L R
Частота : 48,0 КГц
Битовая глубина : 16 бит
Метод сжатия : С потерями
Размер потока : 124 Мбайт (4%)
Заголовок : VO - Xixidok
Язык : Russian
Default : Нет
Forced : Нет
Аудио #3
Идентификатор : 4
Формат : AC-3
Формат/Информация : Audio Coding 3
Расширение режима : CM (complete main)
Параметр Endianness формата : Big
Идентификатор кодека : A_AC3
Продолжительность : 1 ч. 30 м.
Вид битрейта : Постоянный
Битрейт : 384 Кбит/сек
Каналы : 6 каналов
Расположение каналов : Front: L C R, Side: L R, LFE
Частота : 48,0 КГц
Битовая глубина : 16 бит
Метод сжатия : С потерями
Размер потока : 247 Мбайт (8%)
Заголовок : ENG
Язык : English
Default : Нет
Forced : Нет
Текст
Идентификатор : 5
Формат : UTF-8
Идентификатор кодека : S_TEXT/UTF8
Идентификатор кодека/Информация : UTF-8 Plain Text
Заголовок : Eng Sub
Язык : English
Default : Нет
Forced : Нет
Меню
00:00:00.000 : en:Down The Hatch
00:07:09.000 : en:The Package
00:12:08.000 : en:Not Alone
00:15:50.000 : en:We Have To Crawl
00:21:17.000 : en:Deeper
00:26:00.000 : en:A Room
00:29:37.000 : en:Move
00:33:28.000 : en:Light Trail
00:36:47.000 : en:Did You Stop It?
00:42:00.000 : en:Searching For Air
00:46:01.000 : en:The Choice
00:48:43.000 : en:Dirt Tunnel
00:52:27.000 : en:Package Down
00:58:51.000 : en:Alone
01:06:08.000 : en:Tight Spaces
01:12:49.000 : en:Digging
01:17:42.000 : en:Rescued
01:28:57.000 : en:End Credits
Скачать

Скачать торрент!

Как скачивать? · Что такое торрент? · Рейтинг и ограничения

Сайт не распространяет и не хранит электронные версии произведений, а лишь предоставляет доступ к создаваемому пользователями каталогу ссылок на торрент-файлы, которые содержат только списки хеш-сумм

[Профиль] [ЛС]
Показать сообщения:    
Ответить на тему

Текущее время: Сегодня 08:41

Часовой пояс: GMT + 4



Вы не можете начинать темы
Вы не можете отвечать на сообщения
Вы не можете редактировать свои сообщения
Вы не можете удалять свои сообщения
Вы не можете голосовать в опросах
Вы не можете прикреплять файлы к сообщениям
Вы не можете скачивать файлы