Бэтмен: Нападение на Аркхэм / Batman: Assault on Arkham (Jay Oliva / Джей Олива, Ethan Spaulding / Этан Сполдинг) [2014, боевик, триллер, криминал, BRRip] MVO (Kapets\'s Studios) + ENG + SUB

Ответить на тему
 
Автор Сообщение

user ®

Стаж: 13 лет

Сообщений: 15041

Пост Пост: #1 от 26-Авг-2014 17:05

[Цитировать]

Бэтмен: Нападение на Аркхэм / Batman: Assault on Arkham
Год выпуска: 2014
Страна: США
Жанр: боевик, триллер, криминал
Продолжительность: 01:15:56
Перевод: Любительский (многоголосый закадровый) от Kapets's Studios
Русские субтитры: нет
Режиссёр: Jay Oliva / Джей Олива, Ethan Spaulding / Этан Сполдинг
Роли озвучивали: Мэттью Грей Гублер, Джанкарло Эспозито, Нил МакДонаф, Джон Ди Маджио, Трой Бэйкер, Нолан Норт, Си Си Эйч Паундер, Кевин Конрой, Хинден Уолш, Дженнифер Хейл
Описание:Секретная правительственная организация формирует спец группу «Отряд Самоубийц», состоящую из наемников и убийц, чтобы проникнуть в психиатрическую лечебницу Аркхам и добыть похищенную, засекреченную информацию, из рук заключенного — Эдварда Нигмы «Загадочника».-
-
--Над релизом работали:
Озвучивали:
kenpachi
Ormeli
TeT_Rec
kapets
Katrin Marin
PROMETHEUS
Joker_R
Nens
Krisdok--Качество: BRRip
Формат: AVI
Видео: Xvid, 720x400 (16:9), 23,976 fps, 1412 Kbps
Аудио 1: Русский, AC3, 48 KHz, 6 channels, 640 Kbps
Аудио 2: Английский, AC3, 48 KHz, 6 channels, 448 Kbps

Подробные технические данные
GeneralComplete name : D:\Sony Vegas\видео\Batman Assault on Arkham\Batman Assault On Arkham 2014 BRRip XviD Kapets.s.Studios.aviFormat : AVIFormat/Info : Audio Video InterleaveFile size : 1.33 GiBDuration : 1h 15mnOverall bit rate : 2 514 KbpsWriting application : VirtualDubMod 1.5.10.2 (build 2540/release)Writing library : VirtualDubMod build 2540/release
VideoID : 0Format : MPEG-4 VisualFormat profile : Advanced Simple@L5Format settings, BVOP : YesFormat settings, QPel : NoFormat settings, GMC : No warppointsFormat settings, Matrix : Default (H.263)Codec ID : XVIDCodec ID/Hint : XviDDuration : 1h 15mnBit rate : 1 412 KbpsWidth : 720 pixelsHeight : 400 pixelsDisplay aspect ratio : 16:9Frame rate : 23.976 fpsColor space : YUVChroma subsampling : 4:2:0Bit depth : 8 bitsScan type : ProgressiveCompression mode : LossyBits/(Pixel*Frame) : 0.204Stream size : 767 MiB (56%)Writing library : XviD 73
Audio #1ID : 1Format : AC-3Format/Info : Audio Coding 3Mode extension : CM (complete main)Format settings, Endianness : BigCodec ID : 2000Duration : 1h 15mnBit rate mode : ConstantBit rate : 640 KbpsChannel count : 6 channelsChannel positions : Front: L C R, Side: L R, LFESampling rate : 48.0 KHzBit depth : 16 bitsCompression mode : LossyStream size : 348 MiB (25%)Alignment : Split accross interleavesInterleave, duration : 42 ms (1.00 video frame)Interleave, preload duration : 500 ms
Audio #2ID : 2Format : AC-3Format/Info : Audio Coding 3Mode extension : CM (complete main)Format settings, Endianness : BigCodec ID : 2000Duration : 1h 15mnBit rate mode : ConstantBit rate : 448 KbpsChannel count : 6 channelsChannel positions : Front: L C R, Side: L R, LFESampling rate : 48.0 KHzBit depth : 16 bitsCompression mode : LossyStream size : 243 MiB (18%)Alignment : Split accross interleavesInterleave, duration : 42 ms (1.00 video frame)Interleave, preload duration : 500 ms
Скриншоты
Скачать

Скачать торрент! Бэтмен: Нападение на Аркхэм / Batman: Assault on Arkham (Jay Oliva / Джей Олива, Ethan Spaulding / Этан Сполдинг) [2014, боевик, триллер, криминал, BRRip] MVO (Kapets\'s Studios) + ENG + SUB

Как скачивать? · Что такое торрент? · Рейтинг и ограничения

Сайт не распространяет и не хранит электронные версии произведений, а лишь предоставляет доступ к создаваемому пользователями каталогу ссылок на торрент-файлы, которые содержат только списки хеш-сумм

[Профиль] [ЛС]
Показать сообщения:    
Ответить на тему

Текущее время: Сегодня 00:54

Часовой пояс: GMT + 4



Вы не можете начинать темы
Вы не можете отвечать на сообщения
Вы не можете редактировать свои сообщения
Вы не можете удалять свои сообщения
Вы не можете голосовать в опросах
Вы не можете прикреплять файлы к сообщениям
Вы не можете скачивать файлы