Самолеты: Огонь и вода / Planes: Fire and Rescue (Роберт Ганнавей) [2014, мультфильм, комедия, приключения, семейный,TS] Dub

Ответить на тему
 
Автор Сообщение

user ®

Стаж: 13 лет

Сообщений: 15041

Пост Пост: #1 от 25-Авг-2014 22:30

[Цитировать]

Самолеты: Огонь и вода / Planes: Fire and Rescue
Страна: США / DisneyToon Studios, Pran
Жанр: мультфильм, комедия, приключения, семейный
Продолжительность: 01:13:56
Год выпуска: 2014
Перевод: Дублированное
Режиссёр: Роберт Ганнавей
Роли озвучивали: Константин Крюков, Сергей Чихачев, Анна Ардова, Даниил Эльдаров
Описание: Самолетик Дасти, который стал уже легендой воздушных гонок, вскоре узнает, что его двигатель сильно повреждён, и он никогда не может больше участвовать в скоростных воздушных гонках. Дасти ищет себе новое занятие и знакомится с мужественной пожарно-спасательной командой, которой руководит ветеран авиации вертолёт по имени Ренждер. Узнав, насколько тяжела и опасна работа пожарной авиации, Дасти поймёт, что такое настоящий героизм и самоотдача, и сам захочет стать спасателем.
Доп. информация: Реклама отсутствует.
Все раздачи сериала: [url=http://***/forum/tracker.php?nm=%D0%A1%D0%B0%D0%BC%D0%BE%D0%BB%D0%B5%D1%82%D1%8B%3A%20%D0%9E%D0%B3%D0%BE%D0%BD%D1%8C%20%D0%B8%20%D0%B2%D0%BE%D0%B4%D0%B0]http://***/forum/tracker.php?nm=%D0%A1%D0...0%BE%D0%B4%D0%B0[/url]
Семпл: http://multi-up.com/994528
Качество:TS
Формат: AVI
Видео: MPEG4, XviD, 720x384 (1.875), 29.970 fps, 2 183 Kbps (0.263 bit/pixel)
Аудио: Аудио #1: MP3, 44.1 KHz, 2 ch, 256 Kbps, CBR
Аудио 2: Аудио #2: MP3, 48.0 KHz, 2 ch, 192 Kbps, CBR (English)
Субтитры: Отсутствуют.
Подробные технические данные
General Complete name : G:\Downloads\Sam0lety.Og0n.i.V0da.2014.D.TS.1400MB.avi Format : AVI Format/Info : Audio Video Interleave File size : 1.37 GiB Duration : 1h 13mn Overall bit rate : 2 648 Kbps Writing application : VirtualDubMod 1.5.10.2 (build 2540/release) Writing library : VirtualDubMod build 2540/release
Video ID : 0 Format : MPEG-4 Visual Format profile : Advanced Simple@L5 Format settings, BVOP : 2 Format settings, QPel : No Format settings, GMC : No warppoints Format settings, Matrix : Default (H.263) Codec ID : XVID Codec ID/Hint : XviD Duration : 1h 13mn Bit rate : 2 183 Kbps Width : 720 pixels Height : 384 pixels Display aspect ratio : 1.85:1 Frame rate : 29.970 fps Color space : YUV Chroma subsampling : 4:2:0 Bit depth : 8 bits Scan type : Progressive Compression mode : Lossy Bits/(Pixel*Frame) : 0.263 Stream size : 1.13 GiB (82%) Writing library : XviD 1.2.1 (UTC 2008-12-04)
Audio #1 ID : 1 Format : MPEG Audio Format version : Version 1 Format profile : Layer 3 Codec ID : 55 Codec ID/Hint : MP3 Duration : 1h 13mn Bit rate mode : Constant Bit rate : 256 Kbps Channel(s) : 2 channels Sampling rate : 44.1 KHz Compression mode : Lossy Delay relative to video : 1s 170ms Stream size : 135 MiB (10%) Alignment : Split accross interleaves Interleave, duration : 33 ms (1.00 video frame) Interleave, preload duration : 500 ms
Audio #2 ID : 2 Format : MPEG Audio Format version : Version 1 Format profile : Layer 3 Codec ID : 55 Codec ID/Hint : MP3 Duration : 1h 13mn Bit rate mode : Constant Bit rate : 192 Kbps Channel(s) : 2 channels Sampling rate : 48.0 KHz Compression mode : Lossy Delay relative to video : 1s 584ms Stream size : 102 MiB (7%) Alignment : Split accross interleaves Interleave, duration : 33 ms (1.00 video frame) Interleave, preload duration : 504 ms Writing library : LAME3.99r Encoding settings : -m s -V 4 -q 0 -lowpass 18.6 -b 192
Скриншоты
Скачать

Скачать торрент! Самолеты: Огонь и вода / Planes: Fire and Rescue (Роберт Ганнавей) [2014, мультфильм, комедия, приключения, семейный,TS] Dub

Как скачивать? · Что такое торрент? · Рейтинг и ограничения

Сайт не распространяет и не хранит электронные версии произведений, а лишь предоставляет доступ к создаваемому пользователями каталогу ссылок на торрент-файлы, которые содержат только списки хеш-сумм

[Профиль] [ЛС]
Показать сообщения:    
Ответить на тему

Текущее время: Сегодня 19:24

Часовой пояс: GMT + 4



Вы не можете начинать темы
Вы не можете отвечать на сообщения
Вы не можете редактировать свои сообщения
Вы не можете удалять свои сообщения
Вы не можете голосовать в опросах
Вы не можете прикреплять файлы к сообщениям
Вы не можете скачивать файлы