Миля за 4 минуты / Одна квадратная миля / 4 Minute mile / One Square Mile (Шарль-Оливье Мишо / Charles-Olivier Michaud) [2014, США, спортивная драма, DVDRip] VO (ViruseProject)

Ответить на тему
 
Автор Сообщение

user ®

Стаж: 7 лет 7 месяцев

Сообщений: 20008

Пост Пост: #1 от 25-Авг-2014 22:30

[Цитировать]

Миля за 4 минуты / Одна квадратная миля / 4 Minute mile / One Square Mile
Год выпуска: 2014
Страна: США
Жанр: спортивная драма
Продолжительность: 01:36:12
Перевод: Одноголосый закадровый ViruseProject
Русские субтитры: нет
Режиссёр: Шарль-Оливье Мишо / Charles-Olivier Michaud
В ролях: Келли Блац, Ричард Дженкинс, Кэм Жиганде, Риз Койро, Ким Бейсингер, Блэр Фаулер, Дилан Арнольд, Аарон Вашингтон и др.
Описание: Дрю Джейкобс живет на окраине большого города. Его мечта: вырваться из бедности. Его мир: затюканная жизнью мать и брат-уголовник. Его единственная надежда: выиграть чемпионат по бегу и получить стипендию на обучение в престижном университете.
Доп. информация: Фильм обьединяет два очень любимые американцами формата: «вдохновляющую историю» и «спортивную драму». Очередная (какая-то там по счету, но далеко не последняя) история о том, что надо верить в себя и идти к поставленной цели.



Роли озвучивали: Владислав Данилов
Перевод: М. Васильев
Сведение звука: viruse (Виталий Емельянов)
скачать СЕМПЛ с multi-up
Видео взято отсюда: [url=http://***/forum/viewtopic.php?t=4777321]http://***/forum/viewtopic.php?t=4777321[/url]
Качество: DVDRip
Формат: AVI
Видео кодек: XviD
Аудио кодек: AC3
Видео: 640x272 (2.35:1), 23.976 fps, XviD build 64 ~992 kbps avg, 0.24 bit/pixel
Аудио: 48 kHz, MPEG Layer 3, 2 ch, ~192.00 kbps avg
MediaInfo
General
Complete name : D:\ОЗВУЧКА\ВЛАД\4.minute.mile.2014.ViruseProject.avi
Format : AVI
Format/Info : Audio Video Interleave
File size : 821 MiB
Duration : 1h 36mn
Overall bit rate : 1 194 Kbps
Writing application : VirtualDubMod 1.5.10.2 (build 2540/release)
Writing library : VirtualDubMod build 2540/release
Video
ID : 0
Format : MPEG-4 Visual
Format profile : Advanced Simple@L5
Format settings, BVOP : 2
Format settings, QPel : No
Format settings, GMC : No warppoints
Format settings, Matrix : Default (H.263)
Codec ID : XVID
Codec ID/Hint : XviD
Duration : 1h 36mn
Bit rate : 992 Kbps
Width : 640 pixels
Height : 272 pixels
Display aspect ratio : 2.35:1
Frame rate : 23.976 fps
Color space : YUV
Chroma subsampling : 4:2:0
Bit depth : 8 bits
Scan type : Progressive
Compression mode : Lossy
Bits/(Pixel*Frame) : 0.238
Stream size : 683 MiB (83%)
Writing library : XviD 64
Audio
ID : 1
Format : MPEG Audio
Format version : Version 1
Format profile : Layer 3
Mode : Joint stereo
Mode extension : MS Stereo
Codec ID : 55
Codec ID/Hint : MP3
Duration : 1h 36mn
Bit rate mode : Constant
Bit rate : 192 Kbps
Channel(s) : 2 channels
Sampling rate : 48.0 KHz
Compression mode : Lossy
Stream size : 132 MiB (16%)
Alignment : Aligned on interleaves
Interleave, duration : 42 ms (1.00 video frame)
Interleave, preload duration : 504 ms
Скриншоты
Скачать

Скачать торрент!

Как скачивать? · Что такое торрент? · Рейтинг и ограничения

Сайт не распространяет и не хранит электронные версии произведений, а лишь предоставляет доступ к создаваемому пользователями каталогу ссылок на торрент-файлы, которые содержат только списки хеш-сумм

[Профиль] [ЛС]
Показать сообщения:    
Ответить на тему

Текущее время: Сегодня 14:47

Часовой пояс: GMT + 4



Вы не можете начинать темы
Вы не можете отвечать на сообщения
Вы не можете редактировать свои сообщения
Вы не можете удалять свои сообщения
Вы не можете голосовать в опросах
Вы не можете прикреплять файлы к сообщениям
Вы не можете скачивать файлы