07-й меняет курс (Владимир Потапов) [2007, Боевик, драма, DVDRip]

Ответить на тему
 
Автор Сообщение

user ®

Стаж: 7 лет 7 месяцев

Сообщений: 20008

Пост Пост: #1 от 25-Авг-2014 16:50

[Цитировать]

Название фильма: 07-й меняет курс
Жанр: Боевик, драма
Год выпуска: 2007
Продолжительность: 01:31:28
Режиссёр: Владимир Потапов
В ролях: Сергей Маховиков, Анна Тараторкина, Сергей Баталов, Дмитрий Муляр, Владимир Меньшов, Борис Клюев, Рамиль Сабитов, Александр Рапопорт, Георгий Мартиросян, Михаил Жигалов, Ярослав Потапов, Борис Галкин, Роман Мадянов, Игорь Воробьев, Михаил Ремизов, Юрий Осипов, Анатолий Котенев, Наталья Унгард, Игорь Старосельцев, Валерий Афанасьев, Александр Клюквин, Владимир Никитин, Олег Шеремет-Доска, Виктор Тереля, Владимир Денисов, Виктор Пипа, Самвел Асатрян, Батраз Годзоев, Александр Терешко, Елена Бушуева, Дмитрий Калачев, Владимир Кондратьев
Описание: Самолет "Ту-160", оснащенный новейшим противорадарным комплексом "Горгона", готовят к совместным с НАТО военным учениям в Атлантическом океане. К этим же учениям одновременно готовятся международные террористы. С помощью системы спутникового перехвата им удается взять управление самолетом в свои руки. Они начинают вести его на свою базу, расположенную на одном из океанских островов. Высшее военное командование страны готово к тому, чтобы сбить самолет. Но капитан "Ту-160" убеждает Верховного главнокомандующего дать экипажу время попытаться разблокировать управление и предотвратить пуск ракеты на американскую базу.
Сэмпл: http://multi-up.com/994615

Качество видео: DVDRip
Формат видео: AVI
Видео: 720x384 (1.88:1), 25 fps, XviD build 73 ~1001 kbps avg, 0.14 bit/pixel
Аудио: 48 kHz, MPEG Layer 3, 2 ch, ~128.00 kbps avg
MediaInfo
Общее
Полное имя : D:ТоррентМОЯ РАЗДАЧА�7-й меняет курс�7j.menyaet.kurs.2007.Шкипер.avi
Формат : AVI
Формат/Информация : Audio Video Interleave
Размер файла : 745 Мбайт
Продолжительность : 1 ч. 31 м.
Общий поток : 1139 Кбит/сек
Программа кодирования : VirtualDubMod 1.5.10.3 | www. virtualdub-fr. org || (build 2550/release)
Библиотека кодирования : VirtualDubMod build 2550/release
Видео
Идентификатор : 0
Формат : MPEG-4 Visual
Профиль формата : Advanced Simple@L5
Параметр BVOP формата : 1
Параметр QPel формата : Нет
Параметр GMC формата : Без точки перехода
Параметр матрицы формата : Default (MPEG)
Идентификатор кодека : XVID
Идентификатор кодека/Подсказка : XviD
Продолжительность : 1 ч. 31 м.
Битрейт : 1001 Кбит/сек
Ширина : 720 пикселей
Высота : 384 пикселя
Соотношение сторон : 1,85:1
Частота кадров : 25,000 кадров/сек
Цветовое пространство : YUV
Субдискретизация насыщенности : 4:2:0
Битовая глубина : 8 бит
Тип развёртки : Прогрессивная
Метод сжатия : С потерями
Бит/(Пиксели*Кадры) : 0.145
Размер потока : 655 Мбайт (88%)
Библиотека кодирования : XviD 73
Аудио
Идентификатор : 1
Формат : MPEG Audio
Версия формата : Version 1
Профиль формата : Layer 3
Идентификатор кодека : 55
Идентификатор кодека/Подсказка : MP3
Продолжительность : 1 ч. 31 м.
Вид битрейта : Постоянный
Битрейт : 128 Кбит/сек
Каналы : 2 канала
Частота : 48,0 КГц
Метод сжатия : С потерями
Размер потока : 83,7 Мбайт (11%)
Выравнивание : Соединение по промежуткам
Продолжительность промежутка : 40 мс. (1,00 видеокадр)
Время предзагрузки промежутка : 504 мс.
Библиотека кодирования : LAME3.99r
Настройки программы : -m s -V 4 -q 0 -lowpass 17 -b 128
Скриншот c названием фильма Скриншоты
Скачать

Скачать торрент!

Как скачивать? · Что такое торрент? · Рейтинг и ограничения

Сайт не распространяет и не хранит электронные версии произведений, а лишь предоставляет доступ к создаваемому пользователями каталогу ссылок на торрент-файлы, которые содержат только списки хеш-сумм

[Профиль] [ЛС]
Показать сообщения:    
Ответить на тему

Текущее время: Сегодня 00:23

Часовой пояс: GMT + 4



Вы не можете начинать темы
Вы не можете отвечать на сообщения
Вы не можете редактировать свои сообщения
Вы не можете удалять свои сообщения
Вы не можете голосовать в опросах
Вы не можете прикреплять файлы к сообщениям
Вы не можете скачивать файлы