Дорогая, похоже, я тебя убил / Kochanie, chyba cię zabiłem (Куба Несьчеров / Kuba Nieścierow) [2014, Польша, черная комедия, DVDRip] Sub Rus (Professor) + Original Pol

Ответить на тему
 
Автор Сообщение

user ®

Стаж: 7 лет 7 месяцев

Сообщений: 20008

Пост Пост: #1 от 24-Авг-2014 19:15

[Цитировать]

Дорогая, похоже, я тебя убил / Kochanie, chyba cię zabiłem
Страна: Польша
Жанр: черная комедия
Год выпуска: 2014
Продолжительность: 01:27:19
Перевод: Субтитры Professor
Cубтитры: русские
Оригинальная аудиодорожка: польский
Режиссер: Куба Несьчеров / Kuba Nieścierow
В ролях: Збигнев Замаховский, Аркадиуш Якубик, Иренеуш Чоп, Марчин Корч, Анна Карчмарчик, Изабела Куна
Описание: Однажды спокойная жизнь примерного семьянина Яна Покойского превращается в кино в жанре "убей и беги". Цепь случайностей приводит к тому, что Покойский, помимо своей воли, становится серийным убийцей. На его след выходят два полицейских-недотепы: Вербовский, грезящий о лаврах Грязного Гарри, и Граш, проходящий курс терапии от многочисленных фобий...
Доп. информация:

Сэмпл: https://www.sendspace.com/file/u1slxq
Качество видео: DVDRip
Формат видео: AVI
Видео: XviD, 720х304, 2,35:1, 25 fps, 2 100 Kbps
Аудио: AC-3, 48.0 KHz, 448 Kbps, 6 channels
Формат субтитров: softsub (SRT)
MediaInfo
General
Complete name : Kochanie.Chyba.Cie.Zabilem.2014.PL.HQDVDRip.XviD.AC3-WiZARDS.avi
Format : AVI
Format/Info : Audio Video Interleave
File size : 1.56 GiB
Duration : 1h 27mn
Overall bit rate : 2 557 Kbps
Writing application : VirtualDubMod 1.5.10.2 (build 2542/release)
Writing library : VirtualDubMod build 2542/release
Video
ID : 0
Format : MPEG-4 Visual
Format profile : Advanced Simple@L5
Format settings, BVOP : 2
Format settings, QPel : No
Format settings, GMC : No warppoints
Format settings, Matrix : Default (H.263)
Codec ID : XVID
Codec ID/Hint : XviD
Duration : 1h 27mn
Bit rate : 2 100 Kbps
Width : 720 pixels
Height : 304 pixels
Display aspect ratio : 2.35:1
Frame rate : 25.000 fps
Color space : YUV
Chroma subsampling : 4:2:0
Bit depth : 8 bits
Scan type : Progressive
Compression mode : Lossy
Bits/(Pixel*Frame) : 0.384
Stream size : 1.28 GiB (82%)
Writing library : XviD 1.2.1 (UTC 2008-12-04)
Audio
ID : 1
Format : AC-3
Format/Info : Audio Coding 3
Mode extension : CM (complete main)
Format settings, Endianness : Big
Codec ID : 2000
Duration : 1h 27mn
Bit rate mode : Constant
Bit rate : 448 Kbps
Channel(s) : 6 channels
Channel positions : Front: L C R, Side: L R, LFE
Sampling rate : 48.0 KHz
Bit depth : 16 bits
Compression mode : Lossy
Stream size : 280 MiB (18%)
Alignment : Split accross interleaves
Interleave, duration : 40 ms (1.00 video frame)
Interleave, preload duration : 500 ms
Скриншот c названием фильма Скриншоты Пример субтитров
450
00:48:16,720 --> 00:48:18,756
По какой дороге поедем?
451
00:48:18,960 --> 00:48:21,076
Это зашло слишком
далеко, слышишь?
452
00:48:21,320 --> 00:48:25,393
Давай позвоним шефу
и все ему расскажем?
453
00:48:25,600 --> 00:48:27,716
Ни хрена я ему не расскажу!
454
00:48:27,920 --> 00:48:33,392
У меня, наконец, настоящее дело.
И у тебя. Если не спекся
455
00:48:35,680 --> 00:48:38,672
Я всю жизнь хотел
быть полицейским
456
00:48:38,880 --> 00:48:42,350
Хватать сукиных сынов,
настоящих жуликов
457
00:48:42,600 --> 00:48:44,875
Чего ты не понимаешь, парень?
458
00:48:45,120 --> 00:48:48,635
Ты интернет-бабник
или полицейский?
459
00:48:49,360 --> 00:48:51,715
Мы вместе в этом
460
00:48:51,960 --> 00:48:54,838
Это наш последний шанс
461
00:48:55,520 --> 00:48:58,830
С какого порта отплывает
этот паром?
462
00:49:01,080 --> 00:49:03,753
Из Сопота
463
00:49:07,280 --> 00:49:11,114
Не грусти, найдем
твоего друга
464
00:49:23,640 --> 00:49:25,358
Умоляю, отпустите нас
465
00:49:25,800 --> 00:49:28,394
Отпущу, как только
закончим дело
466
00:49:29,120 --> 00:49:30,951
Умоляю...
467
00:49:31,160 --> 00:49:36,154
Не использовала бы это кэн-до,
мы бы иначе разговаривали
468
00:50:05,640 --> 00:50:09,315
Можешь ехать медленней?
469
00:50:34,960 --> 00:50:38,589
Иди, Рикошет
Скачать

Скачать торрент!

Как скачивать? · Что такое торрент? · Рейтинг и ограничения

Сайт не распространяет и не хранит электронные версии произведений, а лишь предоставляет доступ к создаваемому пользователями каталогу ссылок на торрент-файлы, которые содержат только списки хеш-сумм

[Профиль] [ЛС]
Показать сообщения:    
Ответить на тему

Текущее время: Сегодня 12:09

Часовой пояс: GMT + 4



Вы не можете начинать темы
Вы не можете отвечать на сообщения
Вы не можете редактировать свои сообщения
Вы не можете удалять свои сообщения
Вы не можете голосовать в опросах
Вы не можете прикреплять файлы к сообщениям
Вы не можете скачивать файлы