Кенау / Kenau (Маартен Треёньет / Maarten Treurniet) [2014, Нидерланды, Венгрия, Бельгия, боевик, приключения, история, HDRip] AVO (А.Дольский)

Ответить на тему
 
Автор Сообщение

user ®

Стаж: 7 лет 7 месяцев

Сообщений: 20008

Пост Пост: #1 от 24-Авг-2014 19:15

[Цитировать]

Кенау / Kenau
Страна: Нидерланды, Венгрия, Бельгия
Жанр: боевик, приключения, история
Год выпуска: 2014
Продолжительность: 01:52:24
Перевод: Авторский (одноголосый закадровый) А.Дольский
Cубтитры: нет
Оригинальная аудиодорожка: нет
Режиссер: Маартен Треёньет / Maarten Treurniet
В ролях: Моник Хендрикс, Лиза Смит, Барри Атсма, Аттила Арпа, Салли Хармсен, Питер Ван ден Бегин, Маттис ван де Санде Бакхуйзен, Йап Спийкерс, Саймон Нэйдер, Зольтан Папп
Описание: Фильм основан на реальных исторических событиях, когда испанцы имели власть над частью Нидерландов, а также о роли женщине в борьбе за свободу своей страны. В то время пока Кенау героически борется против испанского завоевателя с армией, состоящей из женщин, она, движимая ненавистью и скорбью из-за казни ее младшей дочери, может также потерять свою старшую дочь, потому что ее страх и боль связаны с материнской близостью к ней .
Доп. информация:

Сэмпл: http://multi-up.com/994359
Качество видео: HDRip
Формат видео: AVI
Видео: 720x304 (2.37:1), 23.976 fps, XviD build 50 ~1404 kbps avg, 0.27 bit/pixel
Аудио: 48 kHz, AC3 Dolby Digital, 3/2 (L,C,R,l,r) + LFE ch, ~448 kbps
MediaInfo
General
Complete name : C:\Users\Вика\Desktop\Kenau.2014.HDRip.avi
Format : AVI
Format/Info : Audio Video Interleave
File size : 1.46 GiB
Duration : 1h 52mn
Overall bit rate : 1 862 Kbps
Writing application : VirtualDubMod 1.5.10.2 (build 2540/release)
Writing library : VirtualDubMod build 2540/release
Video
ID : 0
Format : MPEG-4 Visual
Format profile : Advanced Simple@L5
Format settings, BVOP : Yes
Format settings, QPel : No
Format settings, GMC : No warppoints
Format settings, Matrix : Custom
Codec ID : XVID
Codec ID/Hint : XviD
Duration : 1h 52mn
Bit rate : 1 405 Kbps
Width : 720 pixels
Height : 304 pixels
Display aspect ratio : 2.35:1
Frame rate : 23.976 fps
Color space : YUV
Chroma subsampling : 4:2:0
Bit depth : 8 bits
Scan type : Progressive
Compression mode : Lossy
Bits/(Pixel*Frame) : 0.268
Stream size : 1.10 GiB (75%)
Writing library : XviD 1.2.1 (UTC 2008-12-04)
Audio
ID : 1
Format : AC-3
Format/Info : Audio Coding 3
Mode extension : CM (complete main)
Format settings, Endianness : Big
Codec ID : 2000
Duration : 1h 52mn
Bit rate mode : Constant
Bit rate : 448 Kbps
Channel count : 6 channels
Channel positions : Front: L C R, Side: L R, LFE
Sampling rate : 48.0 KHz
Bit depth : 16 bits
Compression mode : Lossy
Stream size : 360 MiB (24%)
Alignment : Split accross interleaves
Interleave, duration : 42 ms (1.00 video frame)
Interleave, preload duration : 500 ms
Скриншоты
Скачать

Скачать торрент!

Как скачивать? · Что такое торрент? · Рейтинг и ограничения

Сайт не распространяет и не хранит электронные версии произведений, а лишь предоставляет доступ к создаваемому пользователями каталогу ссылок на торрент-файлы, которые содержат только списки хеш-сумм

[Профиль] [ЛС]
Показать сообщения:    
Ответить на тему

Текущее время: Сегодня 13:33

Часовой пояс: GMT + 4



Вы не можете начинать темы
Вы не можете отвечать на сообщения
Вы не можете редактировать свои сообщения
Вы не можете удалять свои сообщения
Вы не можете голосовать в опросах
Вы не можете прикреплять файлы к сообщениям
Вы не можете скачивать файлы