Каньоны / The Canyons (Пол Шредер / Paul Schrader) [2013, США, триллер, драма, BDRip 720p] Dub + VO (VANO) + Original (Eng) + Sub (Eng)

Ответить на тему
 
Автор Сообщение

user ®

Стаж: 7 лет 7 месяцев

Сообщений: 20008

Пост Пост: #1 от 24-Авг-2014 00:20

[Цитировать]

Каньоны / The Canyons Страна: США
Жанр: триллер, драма
Год выпуска: 2013
Продолжительность: 01:39:26
Перевод:
  • Профессиональный (дублированный) R5
  • Одноголосый закадровый VANO
    Cубтитры: английские (SDH)
    Оригинальная аудиодорожка: английский
    Режиссер: Пол Шредер / Paul Schrader
    В ролях: Лили Лабё *, Линдси Лохан, Джеймс Дин, Нолан Фанк, Аманда Брукс, Тениль Хьюстон, Гас Ван Сент, Джарод Эйнсон, Крис Цайшегг, Виктор Фишбарг, Джим Бивен, Danny Wylde *
    Описание:
    Фильм о судьбе двух влюбленных в «городе греха» Лос-Анджелесе. Они молоды, жаждут славы и денег, одержимы страстью. По законам жанра, где-то рядом, естественно, оказывается смерть, и цепочка кровавых событий приводит к неожиданным последствиям.
    - || -Тип релиза: BDRip 720p (рип от HDWinG)

    Контейнер: MKV
    Видео: AVC (x264), 1280x544 (2,35:1) at 23,976 fps, 4657 Кbps, 0.279 bpp
    Аудио 1: AC3; 448 Kbps; CBR; 6 ch; 48 khz | Дубляж |
    Аудио 2: AC3; 640 Kbps; CBR; 6 ch; 48 khz | VO - VANO |
    Аудио 3: AC3; 640 Kbps; CBR; 6 ch; 48 khz | Английский |
    Формат субтитров: softsub (SRT)
    Скриншоты || x264 Info || MediaInfo || Notes
    Notes: Аудио дорожка №1 взята с этой [url=http://***/forum/viewtopic.php?t=4648998]раздачи[/url], thx: Gahan Dave
    Аудио дорожка №2 получена наложением выделенного голоса на DTS HDMA
    MediaInfo
Общее
Уникальный идентификатор                 : 179550452152562451189471657146874440672 (0x871428C37C91B1DFAB47970111EDABE0)
Полное имя                               : Каньоны.2013.D.720p.BluRay.x264-HDWinG.mkv
Формат                                   : Matroska
Версия формата                           : Version 4 / Version 2
Размер файла                             : 4,43 Гбайт
Продолжительность                        : 1 ч. 39 м.
Общий поток                              : 6383 Кбит/сек
Название фильма                          : The Canyons [720p] [2013] Dub
Дата кодирования                         : UTC 2014-08-22 13:45:31
Программа кодирования                    : mkvmerge v7.1.0 ('Good Love') 32bit built on Jul 27 2014 12:59:18
Библиотека кодирования                   : libebml v1.3.0 + libmatroska v1.4.1
Видео
Идентификатор                            : 1
Формат                                   : AVC
Формат/Информация                        : Advanced Video Codec
Профиль формата                          : High@L4.1
Параметр CABAC формата                   : Да
Параметр ReFrames формата                : 9 кадров
Идентификатор кодека                     : V_MPEG4/ISO/AVC
Продолжительность                        : 1 ч. 39 м.
Битрейт                                  : 4657 Кбит/сек
Ширина                                   : 1280 пикселей
Высота                                   : 544 пикселя
Соотношение сторон                       : 2,35:1
Режим частоты кадров                     : Постоянный
Частота кадров                           : 23,976 кадра/сек
Цветовое пространство                    : YUV
Субдискретизация насыщенности            : 4:2:0
Битовая глубина                          : 8 бит
Тип развёртки                            : Прогрессивная
Бит/(Пиксели*Кадры)                      : 0.279
Размер потока                            : 3,15 Гбайт (71%)
Заголовок                                : profile.php?mode=viewprofile&u=22488948
Библиотека кодирования                   : x264 core 136 r2348+704+51 d1baef6 tMod [8-bit@4:2:0 X86_64]
Настройки программы                      : cabac=1 / ref=9 / deblock=1:-3:-3 / analyse=0x3:0x133 / me=umh / subme=11 / psy=1 / fade_compensate=0.00 / psy_rd=1.00:0.00 / mixed_ref=1 / me_range=32 / chroma_me=1 / trellis=2 / 8x8dct=1 / cqm=0 / deadzone=21,11 / fast_pskip=0 / chroma_qp_offset=-2 / threads=12 / lookahead_threads=2 / sliced_threads=0 / nr=0 / decimate=0 / interlaced=0 / bluray_compat=0 / constrained_intra=0 / fgo=0 / bframes=8 / b_pyramid=2 / b_adapt=2 / b_bias=0 / direct=3 / weightb=1 / open_gop=0 / weightp=2 / keyint=240 / keyint_min=24 / scenecut=40 / intra_refresh=0 / rc_lookahead=240 / rc=2pass / mbtree=1 / bitrate=4657 / ratetol=1.0 / qcomp=0.70 / qpmin=0:0:0 / qpmax=69:69:69 / qpstep=4 / cplxblur=20.0 / qblur=0.5 / ip_ratio=1.10 / aq=4:0.90 / aq-sensitivity=10.00 / aq-factor=1.00:1.00:1.00 / aq2=0 / aq3=0
Язык                                     : English
Default                                  : Да
Forced                                   : Нет
Аудио #1
Идентификатор                            : 2
Формат                                   : AC-3
Формат/Информация                        : Audio Coding 3
Расширение режима                        : CM (complete main)
Параметр Endianness формата              : Big
Идентификатор кодека                     : A_AC3
Продолжительность                        : 1 ч. 39 м.
Вид битрейта                             : Постоянный
Битрейт                                  : 448 Кбит/сек
Каналы                                   : 6 каналов
Расположение каналов                     : Front: L C R, Side: L R, LFE
Частота                                  : 48,0 КГц
Битовая глубина                          : 16 бит
Метод сжатия                             : С потерями
Размер потока                            : 319 Мбайт (7%)
Заголовок                                : Dub
Язык                                     : Russian
Default                                  : Да
Forced                                   : Нет
Аудио #2
Идентификатор                            : 3
Формат                                   : AC-3
Формат/Информация                        : Audio Coding 3
Расширение режима                        : CM (complete main)
Параметр Endianness формата              : Big
Идентификатор кодека                     : A_AC3
Продолжительность                        : 1 ч. 39 м.
Вид битрейта                             : Постоянный
Битрейт                                  : 640 Кбит/сек
Каналы                                   : 6 каналов
Расположение каналов                     : Front: L C R, Side: L R, LFE
Частота                                  : 48,0 КГц
Битовая глубина                          : 16 бит
Метод сжатия                             : С потерями
Размер потока                            : 455 Мбайт (10%)
Заголовок                                : VO [VANO]
Язык                                     : Russian
Default                                  : Нет
Forced                                   : Нет
Аудио #3
Идентификатор                            : 4
Формат                                   : AC-3
Формат/Информация                        : Audio Coding 3
Расширение режима                        : CM (complete main)
Параметр Endianness формата              : Big
Идентификатор кодека                     : A_AC3
Продолжительность                        : 1 ч. 39 м.
Вид битрейта                             : Постоянный
Битрейт                                  : 640 Кбит/сек
Каналы                                   : 6 каналов
Расположение каналов                     : Front: L C R, Side: L R, LFE
Частота                                  : 48,0 КГц
Битовая глубина                          : 16 бит
Метод сжатия                             : С потерями
Размер потока                            : 455 Мбайт (10%)
Язык                                     : English
Default                                  : Нет
Forced                                   : Нет
Текст
Идентификатор                            : 5
Формат                                   : UTF-8
Идентификатор кодека                     : S_TEXT/UTF8
Идентификатор кодека/Информация          : UTF-8 Plain Text
Заголовок                                : SDH
Язык                                     : English
Default                                  : Нет
Forced                                   : Нет
Меню
00:00:00.000                             : en:00:00:00.000
00:07:47.842                             : en:00:07:47.842
00:15:45.653                             : en:00:15:45.653
00:26:18.619                             : en:00:26:18.619
00:33:41.019                             : en:00:33:41.019
00:43:21.891                             : en:00:43:21.891
00:52:27.978                             : en:00:52:27.978
01:00:14.528                             : en:01:00:14.528
01:08:12.213                             : en:01:08:12.213
01:14:16.952                             : en:01:14:16.952
01:25:05.392                             : en:01:25:05.392
01:36:09.347                             : en:01:36:09.347
x264 Infox264 [info]: frame I:887 Avg QP:16.91 size:100192
x264 [info]: frame P:28456 Avg QP:18.48 size: 47969
x264 [info]: frame B:113716 Avg QP:20.37 size: 17728
x264 [info]: consecutive B-frames: 1.7% 1.8% 7.8% 8.8% 9.3% 58.8% 4.1% 2.7% 5.0% * засветившиеся порно-звёзды
Скачать

Скачать торрент!

Как скачивать? · Что такое торрент? · Рейтинг и ограничения

Сайт не распространяет и не хранит электронные версии произведений, а лишь предоставляет доступ к создаваемому пользователями каталогу ссылок на торрент-файлы, которые содержат только списки хеш-сумм

[Профиль] [ЛС]
Показать сообщения:    
Ответить на тему

Текущее время: Сегодня 03:56

Часовой пояс: GMT + 4



Вы не можете начинать темы
Вы не можете отвечать на сообщения
Вы не можете редактировать свои сообщения
Вы не можете удалять свои сообщения
Вы не можете голосовать в опросах
Вы не можете прикреплять файлы к сообщениям
Вы не можете скачивать файлы