Другая женщина / The Other Woman (Ник Кассаветис / Nick Cassavetes) [2014, США, Мелодрама, комедия, BDRip 720p] Dub (Blu-ray EUR) + Ukr + Sub Rus, Ukr, Eng + Original Eng

Ответить на тему
 
Автор Сообщение

user ®

Стаж: 7 лет 7 месяцев

Сообщений: 20008

Пост Пост: #1 от 24-Авг-2014 00:20

[Цитировать]

Другая женщинаThe Other Woman«Дружба 'против' - тоже дружба»- Страна: США
Жанр: Мелодрама, комедия
Год выпуска: 2014
Продолжительность: 01:49:13
Перевод: Профессиональный (дублированный) Blu-ray EUR
Cубтитры: русские, украинские, английские
Оригинальная аудиодорожка: английский
Режиссер: Ник Кассаветис / Nick Cassavetes
В ролях: Кэмерон Диаз, Лесли Манн, Кейт Аптон, Николай Костер-Вальдау, Дон Джонсон, Тейлор Кинни, Ники Минаж, Дэвид Торнтон, Виктор Круз, Оливия Калпо
Описание: Любовная связь с женатым мужчиной — это, конечно, не лучший вариант, но вполне допустимый. Гораздо хуже, если у него помимо тебя ещё несколько любовниц. Будучи не в силах смириться с таким положением дел, обманутая женщина жаждет крови и вынашивает план мести. Ради достижения своей цели она объединяется с женой изменника, и этот союз униженных и оскорблённых оказывается для казановы пострашнее атомной войны.
| IMDb |
Тип релиза: BDRip 720p
Контейнер: MKV
Видео: AVC, 1280x534 (2.40:1), 5636 kbps, 23,976 fps, 0,344 bpp
Аудио: русский / DTS / 5.1 / 48 kHz / 768 kbps / 24 bit |Дубляж, Blu-ray EUR|
Аудио 2: украинский / AC3 / 5.1 / 48 kHz / 448 kbps / 16 bit |Дубляж, Blu-ray EUR|
Аудио 3: английский / AC3 / 5.1 / 48 kHz / 640 kbps / 16 bit
Формат субтитров: softsub (SRT)

x264
x264 [info]: frame I:1496 Avg QP:16.11 size:134697
x264 [info]: frame P:30092 Avg QP:17.42 size: 50763
x264 [info]: frame B:125529 Avg QP:18.85 size: 23886
x264 [info]: consecutive B-frames: 1.3% 1.6% 3.7% 13.4% 17.1% 50.6% 7.0% 1.7% 1.3% 0.8% 0.7% 0.3% 0.6%
MediaInfo
General
Unique ID                                : 178268266442384192963600139416378691478 (0x861D38209B51B4518295A46CCE224F96)
Complete name                            : H:\Torrent\The.Other.Woman.2014.720p.BluRay.Rus.Ukr.Eng.HDCLUB.mkv
Format                                   : Matroska
Format version                           : Version 4 / Version 2
File size                                : 5.82 GiB
Duration                                 : 1h 49mn
Overall bit rate                         : 7 631 Kbps
Encoded date                             : UTC 2014-08-22 17:06:52
Writing application                      : mkvmerge v6.9.1 ('Blue Panther') 32bit built on Apr 18 2014 18:15:44
Writing library                          : libebml v1.3.0 + libmatroska v1.4.1
Video
ID                                       : 1
Format                                   : AVC
Format/Info                              : Advanced Video Codec
Format profile                           : High@L4.1
Format settings, CABAC                   : Yes
Format settings, ReFrames                : 10 frames
Codec ID                                 : V_MPEG4/ISO/AVC
Duration                                 : 1h 49mn
Bit rate                                 : 5 623 Kbps
Width                                    : 1 280 pixels
Height                                   : 534 pixels
Display aspect ratio                     : 2.40:1
Frame rate mode                          : Constant
Frame rate                               : 23.976 fps
Color space                              : YUV
Chroma subsampling                       : 4:2:0
Bit depth                                : 8 bits
Scan type                                : Progressive
Bits/(Pixel*Frame)                       : 0.343
Stream size                              : 4.29 GiB (74%)
Writing library                          : x264 core 142 r2453kMod ea0ca51
Encoding settings                        : cabac=1 / ref=10 / deblock=1:-3:-3 / analyse=0x3:0x133 / me=esa / subme=10 / psy=1 / fade_compensate=0.00 / psy_rd=1.00:0.05 / mixed_ref=1 / me_range=24 / chroma_me=1 / trellis=2 / 8x8dct=1 / cqm=0 / deadzone=21,11 / fast_pskip=0 / chroma_qp_offset=-3 / threads=6 / lookahead_threads=1 / sliced_threads=0 / nr=0 / decimate=1 / interlaced=0 / bluray_compat=0 / constrained_intra=0 / fgo=0 / bframes=12 / b_pyramid=2 / b_adapt=2 / b_bias=0 / direct=3 / weightb=1 / open_gop=0 / weightp=2 / keyint=250 / keyint_min=23 / scenecut=40 / intra_refresh=0 / rc_lookahead=60 / rc=crf / mbtree=0 / crf=17.2500 / qcomp=0.70 / qpmin=0 / qpmax=69 / qpstep=4 / vbv_maxrate=62500 / vbv_bufsize=78125 / crf_max=0.0 / nal_hrd=none / filler=0 / ip_ratio=1.30 / pb_ratio=1.20 / aq=1:0.80
Language                                 : English
Default                                  : Yes
Forced                                   : No
Matrix coefficients                      : BT.709
Audio #1
ID                                       : 2
Format                                   : DTS
Format/Info                              : Digital Theater Systems
Mode                                     : 16
Format settings, Endianness              : Big
Codec ID                                 : A_DTS
Duration                                 : 1h 49mn
Bit rate mode                            : Constant
Bit rate                                 : 768 Kbps
Channel(s)                               : 6 channels
Channel positions                        : Front: L C R, Side: L R, LFE
Sampling rate                            : 48.0 KHz
Bit depth                                : 24 bits
Compression mode                         : Lossy
Stream size                              : 600 MiB (10%)
Title                                    : Дубляж
Language                                 : Russian
Default                                  : Yes
Forced                                   : No
Audio #2
ID                                       : 3
Format                                   : AC-3
Format/Info                              : Audio Coding 3
Mode extension                           : CM (complete main)
Format settings, Endianness              : Big
Codec ID                                 : A_AC3
Duration                                 : 1h 49mn
Bit rate mode                            : Constant
Bit rate                                 : 448 Kbps
Channel(s)                               : 6 channels
Channel positions                        : Front: L C R, Side: L R, LFE
Sampling rate                            : 48.0 KHz
Bit depth                                : 16 bits
Compression mode                         : Lossy
Stream size                              : 350 MiB (6%)
Title                                    : Дубляж
Language                                 : Ukrainian
Default                                  : No
Forced                                   : No
Audio #3
ID                                       : 4
Format                                   : AC-3
Format/Info                              : Audio Coding 3
Mode extension                           : CM (complete main)
Format settings, Endianness              : Big
Codec ID                                 : A_AC3
Duration                                 : 1h 49mn
Bit rate mode                            : Constant
Bit rate                                 : 640 Kbps
Channel(s)                               : 6 channels
Channel positions                        : Front: L C R, Side: L R, LFE
Sampling rate                            : 48.0 KHz
Bit depth                                : 16 bits
Compression mode                         : Lossy
Stream size                              : 500 MiB (8%)
Language                                 : English
Default                                  : No
Forced                                   : No
Text #1
ID                                       : 5
Format                                   : UTF-8
Codec ID                                 : S_TEXT/UTF8
Codec ID/Info                            : UTF-8 Plain Text
Language                                 : Russian
Default                                  : No
Forced                                   : No
Text #2
ID                                       : 6
Format                                   : UTF-8
Codec ID                                 : S_TEXT/UTF8
Codec ID/Info                            : UTF-8 Plain Text
Language                                 : Ukrainian
Default                                  : No
Forced                                   : No
Text #3
ID                                       : 7
Format                                   : UTF-8
Codec ID                                 : S_TEXT/UTF8
Codec ID/Info                            : UTF-8 Plain Text
Language                                 : English
Default                                  : No
Forced                                   : No
Text #4
ID                                       : 8
Format                                   : UTF-8
Codec ID                                 : S_TEXT/UTF8
Codec ID/Info                            : UTF-8 Plain Text
Title                                    : SDH
Language                                 : English
Default                                  : No
Forced                                   : No
Text #5
ID                                       : 9
Format                                   : UTF-8
Codec ID                                 : S_TEXT/UTF8
Codec ID/Info                            : UTF-8 Plain Text
Title                                    : SDH-Colored
Language                                 : English
Default                                  : No
Forced                                   : No
Menu
00:00:00.000                             : en:00:00:00.000
00:03:06.186                             : en:00:03:06.186
00:05:45.262                             : en:00:05:45.262
00:07:21.274                             : en:00:07:21.274
00:10:21.371                             : en:00:10:21.371
00:14:17.231                             : en:00:14:17.231
00:16:45.421                             : en:00:16:45.421
00:19:47.686                             : en:00:19:47.686
00:21:18.444                             : en:00:21:18.444
00:24:01.649                             : en:00:24:01.649
00:28:16.862                             : en:00:28:16.862
00:32:34.035                             : en:00:32:34.035
00:35:41.181                             : en:00:35:41.181
00:39:06.261                             : en:00:39:06.261
00:41:54.804                             : en:00:41:54.804
00:44:53.316                             : en:00:44:53.316
00:48:33.369                             : en:00:48:33.369
00:52:33.192                             : en:00:52:33.192
00:55:54.977                             : en:00:55:54.977
00:58:20.789                             : en:00:58:20.789
01:00:20.909                             : en:01:00:20.909
01:03:18.712                             : en:01:03:18.712
01:08:39.907                             : en:01:08:39.907
01:11:07.930                             : en:01:11:07.930
01:14:33.302                             : en:01:14:33.302
01:17:25.432                             : en:01:17:25.432
01:22:17.516                             : en:01:22:17.516
01:26:46.410                             : en:01:26:46.410
01:30:07.902                             : en:01:30:07.902
01:35:06.075                             : en:01:35:06.075
01:42:29.810                             : en:01:42:29.810
01:44:31.849                             : en:01:44:31.849
Source vs Encode
Скачать

Скачать торрент!

Как скачивать? · Что такое торрент? · Рейтинг и ограничения

Сайт не распространяет и не хранит электронные версии произведений, а лишь предоставляет доступ к создаваемому пользователями каталогу ссылок на торрент-файлы, которые содержат только списки хеш-сумм

[Профиль] [ЛС]
Показать сообщения:    
Ответить на тему

Текущее время: Сегодня 12:00

Часовой пояс: GMT + 4



Вы не можете начинать темы
Вы не можете отвечать на сообщения
Вы не можете редактировать свои сообщения
Вы не можете удалять свои сообщения
Вы не можете голосовать в опросах
Вы не можете прикреплять файлы к сообщениям
Вы не можете скачивать файлы