Если только / If Only (Джил Джангер / Gil Junger) [2004, США, фэнтези, драма, мелодрама, комедия, WEB-DL 720p] MVO + Sub Rus, Eng + Original Eng

Ответить на тему
 
Автор Сообщение

user ®

Стаж: 7 лет 7 месяцев

Сообщений: 20008

Пост Пост: #1 от 22-Авг-2014 02:35

[Цитировать]

Если только / If Only
Страна: США
Жанр: фэнтези, драма, мелодрама, комедия
Год выпуска: 2004
Продолжительность: 01:35:45
Перевод: Профессиональный (многоголосый закадровый)
Cубтитры: русские, английские
Оригинальная аудиодорожка: английский
Режиссер: Джил Джангер / Gil Junger
В ролях: Дженнифер Лав Хьюитт, Пол Николлс, Том Уилкинсон, Диана Хардкэсл, Люси Девенпорт, Рой Сэмпсон, Кевин Мур,
Невилл Филлипс, Бен Риджвей, Тео-Ва Вонг
Описание: Каждый день мы принимаем решения, которые влияют не только на собственную судьбу, но и судьбы людей, окружающих нас. Так звено за звеном появляется прочная цепочка событий, разрушить которую нам не под силу. Но, а вдруг получится?
Саманта — американка, учится музыке в Лондоне. Она красива, порывиста, импульсивна и эмоциональна — она влюблена. Ее друг Ян весь в делах, он все время занят и практически женат на своей работе. Это разрушает их отношения с Самантой. Но все переворачивает трагическая случайность — нелепая автокатастрофа уносит жизнь Саманты, и Ян, наконец, понимает, что он потерял в своей жизни...
Если бы только Ян мог повернуть время вспять, если бы только он мог прожить этот роковой день заново, если бы только... И судьба предоставляет ему этот шанс.
Доп. информация: Видео и английские субтитры были взяты из iTunes (спасибо jhonny2). Обе аудиодорожки и русские субтитры были взяты из раздачи Waer ([url=http://***/forum/viewtopic.php?t=2767863]http://***/forum/viewtopic.php?t=2767863[/url]) и подогнаны под продолжительность фильма.
Использованные программы: Yamb (разборка M4V-файла на потоки), Subtitle Workshop (обработка субтитров), BeSweet+BeLight (разложение AC3-дорожки на WAV-файлы), Adobe Audition (обработка аудио), SonicFoundry Soft Encode (кодирование AC3), MKVToolNix (сборка MKV-файла).
Сэмпл: http://multi-up.com/993788
Тип релиза: WEB-DL 720p
Контейнер: MKV
Видео: AVC, 16:9, 1280x718, 23.976 fps, 3866 Kbps (iTunes)
Аудио: рус MVO Dolby AC3 5.1 448 kbps 48.0 KHz
Аудио 2: англ Dolby AC3 5.1 448 kbps 48.0 KHz
Формат субтитров: softsub (SRT)
MediaInfo
General
Unique ID : 218513824269817982710570089585926968188 (0xA4643B5377FCAF29B81217C20D6B937C)
Complete name : C:\HDD01\MOVIES\Если только HD720.mkv
Format : Matroska
Format version : Version 4 / Version 2
File size : 3.25 GiB
Duration : 1h 35mn
Overall bit rate : 4 859 Kbps
Encoded date : UTC 2014-08-18 17:54:57
Writing application : mkvmerge v7.1.0 ('Good Love') 32bit built on Jul 27 2014 12:59:18
Writing library : libebml v1.3.0 + libmatroska v1.4.1
DURATION : 01:27:39.920000000
NUMBER_OF_FRAMES : 866
NUMBER_OF_BYTES : 34437
_STATISTICS_WRITING_APP : mkvmerge v7.1.0 ('Good Love') 32bit built on Jul 27 2014 12:59:18
_STATISTICS_WRITING_DATE_UTC : 2014-08-18 17:54:57
_STATISTICS_TAGS : BPS DURATION NUMBER_OF_FRAMES NUMBER_OF_BYTES
Video
ID : 1
Format : AVC
Format/Info : Advanced Video Codec
Format profile : High@L3.1
Format settings, CABAC : No
Format settings, ReFrames : 2 frames
Codec ID : V_MPEG4/ISO/AVC
Duration : 1h 35mn
Bit rate : 3 866 Kbps
Width : 1 280 pixels
Height : 718 pixels
Display aspect ratio : 16:9
Frame rate mode : Constant
Frame rate : 23.976 fps
Color space : YUV
Chroma subsampling : 4:2:0
Bit depth : 8 bits
Scan type : Progressive
Bits/(Pixel*Frame) : 0.175
Stream size : 2.59 GiB (80%)
Title : If Only
Default : Yes
Forced : No
Color primaries : BT.709
Transfer characteristics : BT.709
Matrix coefficients : BT.709
Audio #1
ID : 2
Format : AC-3
Format/Info : Audio Coding 3
Mode extension : CM (complete main)
Format settings, Endianness : Big
Codec ID : A_AC3
Duration : 1h 35mn
Bit rate mode : Constant
Bit rate : 448 Kbps
Channel(s) : 6 channels
Channel positions : Front: L C R, Side: L R, LFE
Sampling rate : 48.0 KHz
Bit depth : 16 bits
Compression mode : Lossy
Stream size : 307 MiB (9%)
Title : Russian R5
Language : Russian
Default : Yes
Forced : No
Audio #2
ID : 3
Format : AC-3
Format/Info : Audio Coding 3
Mode extension : CM (complete main)
Format settings, Endianness : Big
Codec ID : A_AC3
Duration : 1h 35mn
Bit rate mode : Constant
Bit rate : 448 Kbps
Channel(s) : 6 channels
Channel positions : Front: L C R, Side: L R, LFE
Sampling rate : 48.0 KHz
Bit depth : 16 bits
Compression mode : Lossy
Stream size : 307 MiB (9%)
Title : English
Language : English
Default : No
Forced : No
Text #1
ID : 4
Format : UTF-8
Codec ID : S_TEXT/UTF8
Codec ID/Info : UTF-8 Plain Text
Title : Russian R5
Language : Russian
Default : No
Forced : No
Text #2
ID : 5
Format : UTF-8
Codec ID : S_TEXT/UTF8
Codec ID/Info : UTF-8 Plain Text
Title : English
Language : English
Default : No
Forced : No
Menu
00:00:00.000 : en:Start
00:08:17.000 : en:Botched Business Pitch
00:13:42.000 : en:Lovelorn Admirers
00:16:48.000 : en:Taxi Ride
00:19:31.000 : en:Concert Performance
00:22:03.000 : en:Self-Centered Attitude
00:26:18.000 : en:Car Crash
00:28:19.000 : en:Hospital Death
00:30:50.000 : en:In Mourning
00:33:06.000 : en:Dream or Reality?
00:36:57.000 : en:Burned Hand
00:38:32.000 : en:A Different Route to Work
00:42:58.000 : en:Winning Presentation
00:46:21.000 : en:Pub Celebration
00:47:59.000 : en:The Same Cab Driver
00:50:21.000 : en:The Oliver Factor
00:53:14.000 : en:Desperate Search
00:54:38.000 : en:To the Mountaintop
00:58:43.000 : en:Intense Day of Sharing
01:03:48.000 : en:Family Background
01:08:38.000 : en:Overcoming Fear
01:10:46.000 : en:Making Music Happen
01:14:10.000 : en:Public Debut
01:19:18.000 : en:A Gift from the Heart
01:22:10.000 : en:"I love you."
01:24:59.000 : en:Facing Death
01:26:29.000 : en:New Survivor
01:28:29.000 : en:Moving Forward
Скриншоты
Скачать

Скачать торрент!

Как скачивать? · Что такое торрент? · Рейтинг и ограничения

Сайт не распространяет и не хранит электронные версии произведений, а лишь предоставляет доступ к создаваемому пользователями каталогу ссылок на торрент-файлы, которые содержат только списки хеш-сумм

[Профиль] [ЛС]
Показать сообщения:    
Ответить на тему

Текущее время: Сегодня 20:16

Часовой пояс: GMT + 4



Вы не можете начинать темы
Вы не можете отвечать на сообщения
Вы не можете редактировать свои сообщения
Вы не можете удалять свои сообщения
Вы не можете голосовать в опросах
Вы не можете прикреплять файлы к сообщениям
Вы не можете скачивать файлы