Другая женщина / The Other Woman (Ник Кассаветис / Nick Cassavetes) [2014, США, Комедия, мелодрама, BDRemux 1080p] Dub (Rus, Ukr) + Original Eng + Subs (Rus, Ukr, Eng)

Ответить на тему
 
Автор Сообщение

user ®

Стаж: 7 лет 7 месяцев

Сообщений: 20008

Пост Пост: #1 от 22-Авг-2014 02:35

[Цитировать]

Другая женщина / The Other Woman- Страна: США
Жанр: Комедия, мелодрама
Год выпуска: 2014
Продолжительность: 01:49:13
Перевод: Профессиональный (дублированный)
Cубтитры: русские, украинские, английские
Оригинальная аудиодорожка: английская-Режиссер: Ник Кассаветис / Nick Cassavetes
В ролях: Кэмерон Диаз, Лесли Манн, Кейт Аптон, Николай Костер-Вальдау, Дон Джонсон, Тейлор Кинни, Ники Минаж, Дэвид Торнтон, Виктор Круз, Оливия Калпо-Описание: Любовная связь с женатым мужчиной — это, конечно, не лучший вариант, но вполне допустимый. Гораздо хуже, если у него помимо тебя ещё несколько любовниц. Будучи не в силах смириться с таким положением дел, обманутая женщина жаждет крови и вынашивает план мести. Ради достижения своей цели она объединяется с женой изменника, и этот союз униженных и оскорблённых оказывается для казановы пострашнее атомной войны.-
-Качество видео: BDRemux 1080p (The Other Woman (2014) Blu-ray EUR 1080p AVC DTS 5.1)
Формат видео: MKV
Видео: AVC, 1920x1080, 29462 kbps, 23,976 fps
Аудио 1: DTS, 48000 Hz, 768 kbps, 5.1 channels - DUB RUS
Аудио 2: AC3, 48000 Hz, 448 kbps, 5.1 channels - DUB UKR
Аудио 3: DTS-HD, 5.1 / 48 kHz / 3630 kbps / 24-bit (DTS Core: 5.1 / 48 kHz / 1509 kbps / 24-bit) - ENG
Формат субтитров: softsub (SRT) - русские, украинские, английские-Скриншоты Резервные скриншоты
-
MediaInfo
Format : Matroska
Format version : Version 4 / Version 2
File size : 26.0 GiB
Duration : 1h 49mn
Overall bit rate mode : Variable
Overall bit rate : 34.1 Mbps
Movie name : Другая женщина / The Other Woman (2014) BDRemux 1080p [RG Torrents.ru]
Encoded date : UTC 2014-08-19 20:34:03
Writing application : mkvmerge v7.1.0 ('Good Love') 32bit built on Jul 27 2014 12:59:18
Writing library : libebml v1.3.0 + libmatroska v1.4.1
Cover : Yes
Video
ID : 1
Format : AVC
Format/Info : Advanced Video Codec
Format profile : High@L4.1
Format settings, CABAC : Yes
Format settings, ReFrames : 4 frames
Codec ID : V_MPEG4/ISO/AVC
Duration : 1h 49mn
Bit rate mode : Variable
Maximum bit rate : 31.0 Mbps
Width : 1 920 pixels
Height : 1 080 pixels
Display aspect ratio : 16:9
Frame rate mode : Constant
Frame rate : 23.976 fps
Color space : YUV
Chroma subsampling : 4:2:0
Bit depth : 8 bits
Scan type : Progressive
Language : English
Default : Yes
Forced : No
Audio #1
ID : 2
Format : DTS
Format/Info : Digital Theater Systems
Mode : 16
Format settings, Endianness : Big
Codec ID : A_DTS
Duration : 1h 49mn
Bit rate mode : Constant
Bit rate : 768 Kbps
Channel(s) : 6 channels
Channel positions : Front: L C R, Side: L R, LFE
Sampling rate : 48.0 KHz
Bit depth : 24 bits
Compression mode : Lossy
Stream size : 600 MiB (2%)
Title : DTS
Language : Russian
Default : Yes
Forced : No
Audio #2
ID : 3
Format : AC-3
Format/Info : Audio Coding 3
Mode extension : CM (complete main)
Format settings, Endianness : Big
Codec ID : A_AC3
Duration : 1h 49mn
Bit rate mode : Constant
Bit rate : 448 Kbps
Channel(s) : 6 channels
Channel positions : Front: L C R, Side: L R, LFE
Sampling rate : 48.0 KHz
Bit depth : 16 bits
Compression mode : Lossy
Stream size : 350 MiB (1%)
Title : AC3
Language : Ukrainian
Default : No
Forced : No
Audio #3
ID : 4
Format : DTS
Format/Info : Digital Theater Systems
Format profile : MA / Core
Mode : 16
Format settings, Endianness : Big
Codec ID : A_DTS
Duration : 1h 49mn
Bit rate mode : Variable
Bit rate : Unknown / 1 509 Kbps
Channel(s) : 6 channels
Channel positions : Front: L C R, Side: L R, LFE
Sampling rate : 48.0 KHz
Bit depth : 24 bits
Compression mode : Lossless / Lossy
Title : DTS-HD
Language : English
Default : No
Forced : No
Text #1
ID : 5
Format : UTF-8
Codec ID : S_TEXT/UTF8
Codec ID/Info : UTF-8 Plain Text
Language : Russian
Default : No
Forced : No
Text #2
ID : 6
Format : UTF-8
Codec ID : S_TEXT/UTF8
Codec ID/Info : UTF-8 Plain Text
Language : Ukrainian
Default : No
Forced : No
Text #3
ID : 7
Format : UTF-8
Codec ID : S_TEXT/UTF8
Codec ID/Info : UTF-8 Plain Text
Language : English
Default : No
Forced : No
Menu
00:00:00.000 : en:Chapter 01
00:03:06.186 : en:Chapter 02
00:05:45.261 : en:Chapter 03
00:07:21.274 : en:Chapter 04
00:10:21.370 : en:Chapter 05
00:14:17.231 : en:Chapter 06
00:16:45.421 : en:Chapter 07
00:19:47.686 : en:Chapter 08
00:21:18.443 : en:Chapter 09
00:24:01.648 : en:Chapter 10
00:28:16.861 : en:Chapter 11
00:32:34.035 : en:Chapter 12
00:35:41.180 : en:Chapter 13
00:39:06.260 : en:Chapter 14
00:41:54.803 : en:Chapter 15
00:44:53.315 : en:Chapter 16
00:48:33.368 : en:Chapter 17
00:52:33.191 : en:Chapter 18
00:55:54.976 : en:Chapter 19
00:58:20.788 : en:Chapter 20
01:00:20.908 : en:Chapter 21
01:03:18.711 : en:Chapter 22
01:08:39.907 : en:Chapter 23
01:11:07.930 : en:Chapter 24
01:14:33.302 : en:Chapter 25
01:17:25.432 : en:Chapter 26
01:22:17.515 : en:Chapter 27
01:26:46.409 : en:Chapter 28
01:30:07.902 : en:Chapter 29
01:35:06.075 : en:Chapter 30
01:42:29.810 : en:Chapter 31
01:44:31.848 : en:Chapter 32

-
Доп. инфо
За исходный диск спасибо
Скачать

Скачать торрент!

Как скачивать? · Что такое торрент? · Рейтинг и ограничения

Сайт не распространяет и не хранит электронные версии произведений, а лишь предоставляет доступ к создаваемому пользователями каталогу ссылок на торрент-файлы, которые содержат только списки хеш-сумм

[Профиль] [ЛС]
Показать сообщения:    
Ответить на тему

Текущее время: Сегодня 01:49

Часовой пояс: GMT + 4



Вы не можете начинать темы
Вы не можете отвечать на сообщения
Вы не можете редактировать свои сообщения
Вы не можете удалять свои сообщения
Вы не можете голосовать в опросах
Вы не можете прикреплять файлы к сообщениям
Вы не можете скачивать файлы