Долгое падение / A Long Way Down (Паскаль Шомель / Pascal Chaumeil) [2014, Великобритания, Германия, драма, комедия, BDRip 1080p] Dub + Original Eng + subs (rus, eng)

Ответить на тему
 
Автор Сообщение

user ®

Стаж: 7 лет 7 месяцев

Сообщений: 20008

Пост Пост: #1 от 22-Авг-2014 02:35

[Цитировать]

Долгое падение / A Long Way Down- Год выпуска: 2014
Выпущено: Великобритания, Германия
Жанр: драма, комедия
Продолжительность: 01:35:45
Перевод: Профессиональный (полное дублирование)
Оригинальная звуковая дорожка: English
Субтитры: Russian, English-Режиссер: Паскаль Шомель / Pascal Chaumeil
В ролях: Пирс Броснан, Имоджен Путс, Аарон Пол, Тони Коллетт, Сэм Нил, Таппенс Мидлтон, Розамунд Пайк, Зара Уайт, Джо Коул, Эвелин Дуа
О фильме: Четверо незнакомцев встречаются в канун Нового Года на крыше лондонского небоскреба. Каждый из них поднялся с одной целью — прыгнуть. Очередь в лучший мир заставляет их заключить пакт — дожить до Дня всех влюбленных и оторваться по полной.
NTb!
Релиз:
Формат: MKV
Видео: 1920x804 at 24 fps, x264@L4.1, ~11500 kbps avg
Аудио #01: Russian: 48 kHz/24-bit, DTS, 3/2 (L,C,R,l,r) + LFE ch, ~1510.00 kbps avg |Дубляж, Blu-Ray RUS|
Аудио #02: English: 48 kHz/24-bit, DTS, 3/2 (L,C,R,l,r) + LFE ch, ~1510.00 kbps avg
Семпл-Source vs Encode
-
mInfo
Формат : Matroska
Версия формата : Version 4 / Version 2
Размер файла : 9,89 Гбайт
Продолжительность : 1 ч. 35 м.
Общий поток : 14,8 Мбит/сек
Дата кодирования : UTC 2014-08-18 14:10:52
Программа кодирования : mkvmerge v6.9.1 ('Blue Panther') 64bit built on Apr 18 2014 18:23:38
Библиотека кодирования : libebml v1.3.0 + libmatroska v1.4.1
Видео
Идентификатор : 1
Формат : AVC
Формат/Информация : Advanced Video Codec
Профиль формата : High@L4.1
Параметр CABAC формата : Да
Параметр ReFrames формата : 5 кадров
Идентификатор кодека : V_MPEG4/ISO/AVC
Продолжительность : 1 ч. 35 м.
Битрейт : 11,5 Мбит/сек
Ширина : 1920 пикселей
Высота : 804 пикселя
Соотношение сторон : 2,40:1
Режим частоты кадров : Постоянный
Частота кадров : 24,000 кадра/сек
Цветовое пространство : YUV
Субдискретизация насыщенности : 4:2:0
Битовая глубина : 8 бит
Тип развёртки : Прогрессивная
Бит/(Пиксели*Кадры) : 0.310
Размер потока : 7,68 Гбайт (78%)
Библиотека кодирования : x264 core 142 r2431+42 c69a006 tMod [8-bit@all X86_64]
Настройки программы : cabac=1 / ref=5 / deblock=1:-3:-3 / analyse=0x3:0x133 / me=tesa / subme=10 / psy=1 / fade_compensate=0.00 / psy_rd=1.00:0.00 / mixed_ref=1 / me_range=24 / chroma_me=1 / trellis=2 / 8x8dct=1 / cqm=0 / deadzone=21,11 / fast_pskip=1 / chroma_qp_offset=-2 / threads=12 / lookahead_threads=2 / sliced_threads=0 / nr=0 / decimate=1 / interlaced=0 / bluray_compat=0 / constrained_intra=0 / fgo=0 / bframes=8 / b_pyramid=2 / b_adapt=2 / b_bias=0 / direct=3 / weightb=1 / open_gop=0 / weightp=2 / keyint=250 / keyint_min=24 / scenecut=40 / intra_refresh=0 / rc=crf / mbtree=0 / crf=15.0000 / qcomp=0.80 / qpmin=0:0:0 / qpmax=69:69:69 / qpstep=4 / ip_ratio=1.40 / pb_ratio=1.30 / aq=4:0.80 / aq-sensitivity=10.00 / aq-factor=1.00:1.00:1.00 / aq2=0 / aq3=0
Default : Нет
Forced : Нет
Аудио #1
Идентификатор : 2
Формат : DTS
Формат/Информация : Digital Theater Systems
Режим : 16
Параметр Endianness формата : Big
Идентификатор кодека : A_DTS
Продолжительность : 1 ч. 35 м.
Вид битрейта : Постоянный
Битрейт : 1509 Кбит/сек
Каналы : 6 каналов
Расположение каналов : Front: L C R, Side: L R, LFE
Частота : 48,0 КГц
Битовая глубина : 24 бит
Метод сжатия : С потерями
Размер потока : 1,01 Гбайт (10%)
Язык : Russian
Default : Да
Forced : Нет
Аудио #2
Идентификатор : 3
Формат : DTS
Формат/Информация : Digital Theater Systems
Режим : 16
Параметр Endianness формата : Big
Идентификатор кодека : A_DTS
Продолжительность : 1 ч. 35 м.
Вид битрейта : Постоянный
Битрейт : 1509 Кбит/сек
Каналы : 6 каналов
Расположение каналов : Front: L C R, Side: L R, LFE
Частота : 48,0 КГц
Битовая глубина : 24 бит
Метод сжатия : С потерями
Размер потока : 1,01 Гбайт (10%)
Язык : English
Default : Нет
Forced : Нет
Текст #1
Идентификатор : 4
Формат : UTF-8
Идентификатор кодека : S_TEXT/UTF8
Идентификатор кодека/Информация : UTF-8 Plain Text
Язык : Russian
Default : Нет
Forced : Нет
Текст #2
Идентификатор : 5
Формат : UTF-8
Идентификатор кодека : S_TEXT/UTF8
Идентификатор кодека/Информация : UTF-8 Plain Text
Язык : English
Default : Нет
Forced : Нет
Меню
00:00:00.000 : en:00:00:00.000
00:09:32.167 : en:00:09:32.167
00:23:02.875 : en:00:23:02.875
00:34:01.042 : en:00:34:01.042
00:42:15.167 : en:00:42:15.167
00:51:04.167 : en:00:51:04.167
01:01:09.083 : en:01:01:09.083
01:12:20.458 : en:01:12:20.458
01:20:31.958 : en:01:20:31.958
01:30:47.708 : en:01:30:47.708
-
Скачать

Скачать торрент!

Как скачивать? · Что такое торрент? · Рейтинг и ограничения

Сайт не распространяет и не хранит электронные версии произведений, а лишь предоставляет доступ к создаваемому пользователями каталогу ссылок на торрент-файлы, которые содержат только списки хеш-сумм

[Профиль] [ЛС]
Показать сообщения:    
Ответить на тему

Текущее время: Сегодня 22:18

Часовой пояс: GMT + 4



Вы не можете начинать темы
Вы не можете отвечать на сообщения
Вы не можете редактировать свои сообщения
Вы не можете удалять свои сообщения
Вы не можете голосовать в опросах
Вы не можете прикреплять файлы к сообщениям
Вы не можете скачивать файлы