Гатор / Аллигатор / Gator (Берт Рейнольдс / Burt Reynolds) [1976, США, Боевик, Драма, Криминал, HDTVRip 720p] DVO + Original Eng + Sub Eng

Ответить на тему
 
Автор Сообщение

user ®

Стаж: 7 лет 7 месяцев

Сообщений: 20008

Пост Пост: #1 от 22-Авг-2014 02:35

[Цитировать]

Аллигатор / Gator
Страна: США
Студия: Levy-Gardner-Laven, MGM
Жанр: Боевик, Драма, Криминал
Год выпуска: 1976
Продолжительность: 01:51:31
Перевод: Профессиональный (двухголосый закадровый)
Cубтитры: английские
Оригинальная аудиодорожка: английский
Режиссер: Берт Рейнольдс / Burt Reynolds
В ролях: Берт Рейнольдс, Джек Уэстон, Лорен Хаттон, Джерри Рид, Элис Гоустли, Даб Тэйлор, Майк Дуглас, Бертон Джиллиам, Уильям Энгессер, Джон Стидман, Лори Фатч (Burt Reynolds, Jack Weston, Lauren Hutton, Jerry Reed, Alice Ghostley, Dub Taylor, Mike Douglas, Burton Gilliam, William Engesser, John Steadman, Lori Futch)
Описание: Сиквел фильма 1973-го года [url=http://***/forum/viewtopic.php?t=3039964]"Белая молния" (White Lightning)[/url]. После освобождения из тюрьмы "Аллигатор" МакКласки пытается начать новую жизнь вдали от городской суеты. Но федеральные агенты нарушают его покой и пытаются заставить помочь им в операции против коррумпированного политика, друга детства Аллигатора. Поначалу он сопротивляется этому, но постепенно узнавая, что старый друг причастен к вымогательствам, организации проституции и даже убийствам, Аллигатор решает помочь властям.
Доп. информация: Автор рипа - ZED. Добавлена русская дорожка, любезно предоставленная Alec Storm, за что ему большое спасибо!
Сэмпл
Тип релиза: HDTVRip 720p
Контейнер: MKV
Видео: 1280x550p, 25 fps, x264, 5087 kbps
Аудио 1: Russian (Dolby AC3, 2 ch) 192 Kbps / 48 000 Hz
Аудио 2: English (Dolby AC3, 2 ch) 192 Kbps / 48 000 Hz
Субтитры: English
MediaInfo
Уникальный идентификатор : 209313954763216212442571623230496442035 (0x9D7866BD4745E952A6BD0E9BDE4206B3)
Полное имя : Gator.(1976).HDTVRip.720p.x264.RUS.ENG.AC3.mkv
Формат : Matroska
Версия формата : Version 4 / Version 2
Размер файла : 4,35 Гбайт
Продолжительность : 1 ч. 51 м.
Общий поток : 5582 Кбит/сек
Название фильма : Gator (1976) HDTVRip 720p
Дата кодирования : UTC 2014-08-10 08:23:18
Программа кодирования : mkvmerge v7.1.0 ('Good Love') 32bit built on Jul 27 2014 12:59:18
Библиотека кодирования : libebml v1.3.0 + libmatroska v1.4.1
DURATION : 01:51:30.752000000
NUMBER_OF_FRAMES : 209086
NUMBER_OF_BYTES : 160578048
_STATISTICS_WRITING_APP : mkvmerge v7.1.0 ('Good Love') 32bit built on Jul 27 2014 12:59:18
_STATISTICS_WRITING_DATE_UTC : 2014-08-10 08:23:18
_STATISTICS_TAGS : BPS DURATION NUMBER_OF_FRAMES NUMBER_OF_BYTES
Видео
Идентификатор : 1
Формат : AVC
Формат/Информация : Advanced Video Codec
Профиль формата : High@L4.1
Параметр CABAC формата : Да
Параметр ReFrames формата : 12 кадров
Идентификатор кодека : V_MPEG4/ISO/AVC
Продолжительность : 1 ч. 51 м.
Битрейт : 5087 Кбит/сек
Ширина : 1280 пикселей
Высота : 550 пикселей
Соотношение сторон : 2,35:1
Режим частоты кадров : Постоянный
Частота кадров : 25,000 кадров/сек
Цветовое пространство : YUV
Субдискретизация насыщенности : 4:2:0
Битовая глубина : 8 бит
Тип развёртки : Прогрессивная
Бит/(Пиксели*Кадры) : 0.289
Размер потока : 3,96 Гбайт (91%)
Библиотека кодирования : x264 core 129 r2230kMod 1cffe9f
Настройки программы : cabac=1 / ref=12 / deblock=1:-3:-3 / analyse=0x3:0x133 / me=umh / subme=10 / psy=1 / fade_compensate=0.00 / psy_rd=1.10:0.00 / mixed_ref=1 / me_range=24 / chroma_me=1 / trellis=2 / 8x8dct=1 / cqm=0 / deadzone=21,11 / fast_pskip=0 / chroma_qp_offset=-2 / threads=6 / lookahead_threads=1 / sliced_threads=0 / nr=0 / decimate=0 / interlaced=0 / bluray_compat=0 / constrained_intra=0 / bframes=8 / b_pyramid=2 / b_adapt=2 / b_bias=0 / direct=3 / weightb=1 / open_gop=0 / weightp=2 / keyint=250 / keyint_min=25 / scenecut=40 / intra_refresh=0 / rc_lookahead=40 / rc=crf / mbtree=1 / crf=17.0000 / qcomp=0.80 / qpmin=0 / qpmax=69 / qpstep=4 / ip_ratio=1.30 / aq=1:0.60
Default : Да
Forced : Нет
DURATION : 01:51:30.800000000
NUMBER_OF_FRAMES : 167270
NUMBER_OF_BYTES : 4345699477
_STATISTICS_WRITING_APP : mkvmerge v7.1.0 ('Good Love') 32bit built on Jul 27 2014 12:59:18
_STATISTICS_WRITING_DATE_UTC : 2014-08-10 08:23:18
_STATISTICS_TAGS : BPS DURATION NUMBER_OF_FRAMES NUMBER_OF_BYTES
Аудио #1
Идентификатор : 2
Формат : AC-3
Формат/Информация : Audio Coding 3
Расширение режима : CM (complete main)
Параметр Endianness формата : Big
Идентификатор кодека : A_AC3
Продолжительность : 1 ч. 51 м.
Вид битрейта : Постоянный
Битрейт : 192 Кбит/сек
Каналы : 2 канала
Расположение каналов : Front: L R
Частота : 48,0 КГц
Битовая глубина : 16 бит
Метод сжатия : С потерями
Размер потока : 153 Мбайт (3%)
Язык : Russian
Default : Да
Forced : Нет
Аудио #2
Идентификатор : 3
Формат : AC-3
Формат/Информация : Audio Coding 3
Расширение режима : CM (complete main)
Параметр Endianness формата : Big
Идентификатор кодека : A_AC3
Продолжительность : 1 ч. 51 м.
Вид битрейта : Постоянный
Битрейт : 192 Кбит/сек
Каналы : 2 канала
Расположение каналов : Front: L R
Частота : 48,0 КГц
Битовая глубина : 16 бит
Метод сжатия : С потерями
Размер потока : 153 Мбайт (3%)
Язык : English
Default : Нет
Forced : Нет
Текст
Идентификатор : 4
Формат : UTF-8
Идентификатор кодека : S_TEXT/UTF8
Идентификатор кодека/Информация : UTF-8 Plain Text
Язык : English
Default : Нет
Forced : Нет
Скриншоты
Скачать

Скачать торрент!

Как скачивать? · Что такое торрент? · Рейтинг и ограничения

Сайт не распространяет и не хранит электронные версии произведений, а лишь предоставляет доступ к создаваемому пользователями каталогу ссылок на торрент-файлы, которые содержат только списки хеш-сумм

[Профиль] [ЛС]
Показать сообщения:    
Ответить на тему

Текущее время: Сегодня 13:41

Часовой пояс: GMT + 4



Вы не можете начинать темы
Вы не можете отвечать на сообщения
Вы не можете редактировать свои сообщения
Вы не можете удалять свои сообщения
Вы не можете голосовать в опросах
Вы не можете прикреплять файлы к сообщениям
Вы не можете скачивать файлы