Мы то, что мы есть / Somos lo que hay / We Are What We Are (Хорхе Мишель Грау / Jorge Michel Grau) [2010, Мексика, ужасы, драма, BDRemux 1080p] DVO

Ответить на тему
 
Автор Сообщение

user ®

Стаж: 7 лет 7 месяцев

Сообщений: 20008

Пост Пост: #1 от 22-Авг-2014 02:35

[Цитировать]

Мы то, что мы есть / Somos lo que hay / We Are What We Are
Год выпуска: 2010
Страна: Мексика
Жанр: ужасы, драма
Продолжительность: 1:29:00
Перевод: Любительский (двухголосый)
Русские субтитры: нет
Режиссер: Хорхе Мишель Грау / Jorge Michel Grau
В ролях: Адриан Агирр, Miriam Balderas, Francisco Barreiro, Кармен Беато, Алан Чавез, Хуан Карлос Коломбо, Паулина Гайтан, Даниэль Хименес Качо, Мигель Анхель Хопп, Рауль Кеннед...
Описание: Голод — не тетка? Как бы не так! Семья юного Альфредо голодает, потому как главный добытчик, отец семейства, неожиданно скончался. И на мальчишку сваливается тяжелая ответственность: теперь он должен прокормить свою мать и еще двух детей. Ах да, фишка в том, что все они — каннибалы…
Доп. информация: РЕЛИЗ ГРУППЫ
Качество: BDRemux (GER)
Формат: MKV
Видео: MPEG-4 AVC Video 24796 kbps 1080p / 24 fps / 16:9 / High Profile 4.1
Аудио: Dolby Digital Audio Russian 2.0 / 48 kHz / 192 kbps
Аудио: DTS-HD Master Audio Spanish 5.1 / 48 kHz / 1854 kbps / 16-bit (DTS Core: 5.1 / 48 kHz / 1509 kbps / 16-bit)
хардсаб отсутствует!
MI
General
Unique ID : 228920611510711631950561922523056701406 (0xAC38818D1F14203387D4F88CBA8DFFDE)
Complete name : J:\Somos.lo.Que.Hay.2010.1080p.Bluray.GER.AVC.Remux.mkv
Format : Matroska
Format version : Version 2
File size : 16.7 GiB
Duration : 1h 28mn
Overall bit rate : 26.9 Mbps
Movie name : Somos.lo.Que.Hay.2010.1080p.Bluray.GER.AVC.Remux
Encoded date : UTC 2011-10-24 09:19:40
Writing application : mkvmerge v4.9.1 ('Ich will') сборка от Jul 11 2011 23:53:15
Writing library : libebml v1.2.1 + libmatroska v1.1.1
Video
ID : 1
Format : AVC
Format/Info : Advanced Video Codec
Format profile : High@L4.1
Format settings, CABAC : Yes
Format settings, ReFrames : 4 frames
Codec ID : V_MPEG4/ISO/AVC
Duration : 1h 28mn
Bit rate mode : Variable
Bit rate : 24.4 Mbps
Maximum bit rate : 35.0 Mbps
Width : 1 920 pixels
Height : 1 080 pixels
Display aspect ratio : 16:9
Frame rate : 24.000 fps
Standard : NTSC
Color space : YUV
Chroma subsampling : 4:2:0
Bit depth : 8 bits
Scan type : Progressive
Bits/(Pixel*Frame) : 0.491
Stream size : 15.2 GiB (91%)
Title : uralmix
Color primaries : BT.709-5, BT.1361, IEC 61966-2-4, SMPTE RP177
Transfer characteristics : BT.709-5, BT.1361
Matrix coefficients : BT.709-5, BT.1361, IEC 61966-2-4 709, SMPTE RP177
Audio #1
ID : 2
Format : AC-3
Format/Info : Audio Coding 3
Mode extension : CM (complete main)
Codec ID : A_AC3
Duration : 1h 28mn
Bit rate mode : Constant
Bit rate : 192 Kbps
Channel(s) : 2 channels
Channel positions : Front: L R
Sampling rate : 48.0 KHz
Bit depth : 16 bits
Compression mode : Lossy
Stream size : 122 MiB (1%)
Language : Russian
Audio #2
ID : 3
Format : DTS
Format/Info : Digital Theater Systems
Format profile : MA / Core
Codec ID : A_DTS
Duration : 1h 28mn
Bit rate mode : Variable
Bit rate : 1 720 Kbps / 1 510 Kbps
Channel(s) : 6 channels
Channel positions : Front: L C R, Side: L R, LFE
Sampling rate : 48.0 KHz
Bit depth : 16 bits
Compression mode : Lossless / Lossy
Language : Spanish
Menu
00:00:00.000 : en:00:00:00.000
00:12:51.208 : en:00:12:51.208
00:20:28.208 : en:00:20:28.208
00:28:44.708 : en:00:28:44.708
00:38:42.542 : en:00:38:42.542
00:47:04.625 : en:00:47:04.625
00:56:59.042 : en:00:56:59.042
01:05:32.083 : en:01:05:32.083
01:14:17.833 : en:01:14:17.833
01:23:41.417 : en:01:23:41.417
Скриншоты
Скачать

Скачать торрент!

Как скачивать? · Что такое торрент? · Рейтинг и ограничения

Сайт не распространяет и не хранит электронные версии произведений, а лишь предоставляет доступ к создаваемому пользователями каталогу ссылок на торрент-файлы, которые содержат только списки хеш-сумм

[Профиль] [ЛС]
Показать сообщения:    
Ответить на тему

Текущее время: Сегодня 11:50

Часовой пояс: GMT + 4



Вы не можете начинать темы
Вы не можете отвечать на сообщения
Вы не можете редактировать свои сообщения
Вы не можете удалять свои сообщения
Вы не можете голосовать в опросах
Вы не можете прикреплять файлы к сообщениям
Вы не можете скачивать файлы