Сбрось маму с поезда / Throw Momma from the Train (Денни де Вито / Danny De Vito) [1987 г., комедия, криминал, BDRemux 1080p] MVO + DVO (НТВ+) + AVO (Михалев)

Ответить на тему
 
Автор Сообщение

user ®

Стаж: 7 лет 7 месяцев

Сообщений: 20008

Пост Пост: #1 от 22-Авг-2014 02:35

[Цитировать]

Сбрось маму с поезда / Throw Momma from the Train
Год выпуска: 1987
Страна: США
Жанр: комедия, криминал
Продолжительность: 1:27:41
Перевод: Профессиональный (двухголосый, закадровый) НТВ+
Перевод: Профессиональный (многоголосый, закадровый) Позитив
Перевод: Авторский (одноголосый, закадровый) Алексей Михалев
Субтитры: русские, английские
Режиссер: Денни де Вито / Danny De Vito
В ролях: Дэнни ДеВито, Билли Кристал, Ким Грайст, Энн Рэмси, Кейт Малгрю, Branford Marsalis, Роб Райнер, Брюс Кирби, Джои ДеПинто, Энни Росс, Рэй Бирк, Опра Уинфри, Оливия Браун, Филип Перлман, Стью Сильвер, Дж. Алан Томас, Рэндолл Миллер, Андре Рози Браун, Тони Чикконе, Уильям Рэй Уотсон, Ларри МакКормик, Питер Брокко, Хетти Линн Хёртес, Карен Дж. Уэстерфилд, Stanley L. Gonsales, Fred Gephart, Дон Барнс, Билли Чайлдз, Ralph Penland, Тони Дюма
Описание: Оказывается, даже у столь разных людей может быть что-то общее. Объединяющим мотивом является желание избавиться, причем самым действенным способом, от близкого человека. Один хочет убить свою бывшую жену, которая все еще умудряется превращать его жизнь в ад, второй видит сны о свободной радостной жизни, которым не суждено сбыться из-за буйной, деспотичной мамаши, продолжающей шпынять своего сына, не обращая внимания на его уже совсем не юный возраст. Им кажется, что в такой ситуации лучшим решением избежать наказания — это поменяться убийствами…
Доп. информация: РЕЛИЗ ГРУППЫ
Качество: BDRemux
Формат: MKV
Видео: MPEG-4 AVC Video 27992 kbps 1080p / 23.976 fps / 16:9 / High Profile 4.1
Аудио: Dolby Digital Audio Russian 2.0 / 48 kHz / 192 kbps [НТВ+]*
Аудио: Dolby Digital Audio Russian 2.0 / 48 kHz / 192 kbps [Позитив]
Аудио: Dolby Digital Audio Russian 2.0 / 48 kHz / 192 kbps [Михалев]
Аудио: DTS-HD Master Audio English 2.0 / 48 kHz / 2118 kbps / 24-bit (DTS Core: 2.0 / 48 kHz / 1509 kbps / 24-bit / DN -4dB)
Цитата:
за НТВ+ спасибо [url=http://***/forum/profile.php?mode=viewprofile&u=229863]jurasiom[/url]
*текст читали Наталья Казначеева и Игорь Тарадайкин
MI
General
Unique ID : 208697378104716565845913695501154013572 (0x9D01A729BE364658812856648B5C5184)
Complete name : J:\Throw.Momma.from.the.Train.1987.1080p.Bluray.AVC.Remux.mkv
Format : Matroska
Format version : Version 2
File size : 18.7 GiB
Duration : 1h 27mn
Overall bit rate : 30.6 Mbps
Movie name : Throw.Momma.from.the.Train.1987.1080p.Bluray.AVC.Remux
Encoded date : UTC 2011-09-15 11:44:03
Writing application : mkvmerge v4.9.1 ('Ich will') сборка от Jul 11 2011 23:53:15
Writing library : libebml v1.2.1 + libmatroska v1.1.1
Video
ID : 1
Format : AVC
Format/Info : Advanced Video Codec
Format profile : High@L4.1
Format settings, CABAC : Yes
Format settings, ReFrames : 4 frames
Format settings, GOP : M=2, N=26
Codec ID : V_MPEG4/ISO/AVC
Duration : 1h 27mn
Bit rate mode : Variable
Bit rate : 27.5 Mbps
Maximum bit rate : 38.0 Mbps
Width : 1 920 pixels
Height : 1 080 pixels
Display aspect ratio : 16:9
Frame rate : 23.976 fps
Color space : YUV
Chroma subsampling : 4:2:0
Bit depth : 8 bits
Scan type : Progressive
Bits/(Pixel*Frame) : 0.553
Stream size : 16.8 GiB (90%)
Audio #1
ID : 2
Format : AC-3
Format/Info : Audio Coding 3
Mode extension : CM (complete main)
Codec ID : A_AC3
Duration : 1h 27mn
Bit rate mode : Constant
Bit rate : 192 Kbps
Channel(s) : 2 channels
Channel positions : Front: L R
Sampling rate : 48.0 KHz
Bit depth : 16 bits
Compression mode : Lossy
Stream size : 120 MiB (1%)
Title : НТВ+ (Наталья Казначеева и Игорь Тарадайкин)
Language : Russian
Audio #2
ID : 3
Format : AC-3
Format/Info : Audio Coding 3
Mode extension : CM (complete main)
Codec ID : A_AC3
Duration : 1h 27mn
Bit rate mode : Constant
Bit rate : 192 Kbps
Channel(s) : 2 channels
Channel positions : Front: L R
Sampling rate : 48.0 KHz
Bit depth : 16 bits
Compression mode : Lossy
Stream size : 120 MiB (1%)
Title : Позитив
Language : Russian
Audio #3
ID : 4
Format : AC-3
Format/Info : Audio Coding 3
Mode extension : CM (complete main)
Codec ID : A_AC3
Duration : 1h 27mn
Bit rate mode : Constant
Bit rate : 192 Kbps
Channel(s) : 2 channels
Channel positions : Front: L R
Sampling rate : 48.0 KHz
Bit depth : 16 bits
Compression mode : Lossy
Stream size : 120 MiB (1%)
Title : авторский - Алексей Михалев
Language : Russian
Audio #4
ID : 5
Format : DTS
Format/Info : Digital Theater Systems
Format profile : MA / Core
Codec ID : A_DTS
Duration : 1h 27mn
Bit rate mode : Variable
Bit rate : 1 933 Kbps / 1 510 Kbps
Channel(s) : 2 channels
Channel positions : Front: L R
Sampling rate : 48.0 KHz
Bit depth : 24 bits
Compression mode : Lossless / Lossy
Language : English
Text #1
ID : 6
Format : UTF-8
Codec ID : S_TEXT/UTF8
Codec ID/Info : UTF-8 Plain Text
Language : Russian
Text #2
ID : 7
Format : UTF-8
Codec ID : S_TEXT/UTF8
Codec ID/Info : UTF-8 Plain Text
Language : English
Menu
00:00:00.000 : en:00:00:00.000
00:06:08.159 : en:00:06:08.159
00:08:17.956 : en:00:08:17.956
00:13:10.456 : en:00:13:10.456
00:16:26.485 : en:00:16:26.485
00:19:48.854 : en:00:19:48.854
00:29:05.160 : en:00:29:05.160
00:35:31.212 : en:00:35:31.212
00:41:46.963 : en:00:41:46.963
00:49:01.897 : en:00:49:01.897
00:55:31.286 : en:00:55:31.286
01:00:28.625 : en:01:00:28.625
01:04:33.745 : en:01:04:33.745
01:10:33.312 : en:01:10:33.312
01:16:21.076 : en:01:16:21.076
01:23:08.734 : en:01:23:08.734
Скриншоты
Скачать

Скачать торрент!

Как скачивать? · Что такое торрент? · Рейтинг и ограничения

Сайт не распространяет и не хранит электронные версии произведений, а лишь предоставляет доступ к создаваемому пользователями каталогу ссылок на торрент-файлы, которые содержат только списки хеш-сумм

[Профиль] [ЛС]
Показать сообщения:    
Ответить на тему

Текущее время: Сегодня 08:05

Часовой пояс: GMT + 4



Вы не можете начинать темы
Вы не можете отвечать на сообщения
Вы не можете редактировать свои сообщения
Вы не можете удалять свои сообщения
Вы не можете голосовать в опросах
Вы не можете прикреплять файлы к сообщениям
Вы не можете скачивать файлы