Другая женщина / The Other Woman (Ник Кассаветис / Nick Cassavetes) [2014 г., США, мелодрама, комедия, BDRip-AVC] Dub + Original Eng + Sub (Rus, Ukr, Eng)

Ответить на тему
 
Автор Сообщение

user ®

Стаж: 7 лет 7 месяцев

Сообщений: 20008

Пост Пост: #1 от 22-Авг-2014 02:35

[Цитировать]

-Другая женщина / The Other Woman«Дружба 'против' - тоже дружба» Страна: США
Студия: 20th Century Fox Film Corporation, LBI Productions
Жанр: Мелодрама, комедия
Год выпуска: 2014
Продолжительность: 01:49:13-Перевод: Профессиональный (полное дублирование)
Оригинальная аудиодорожка: английский
Cубтитры: русские, украинские, английские
Режиссер: Ник Кассаветис / Nick Cassavetes
В ролях: Кэмерон Диаз, Лесли Манн, Кейт Аптон, Николай Костер-Вальдау, Дон Джонсон, Тейлор Кинни, Ники Минаж, Дэвид Торнтон, Виктор Круз, Оливия Калпо
Описание: Любовная связь с женатым мужчиной — это, конечно, не лучший вариант, но вполне допустимый. Гораздо хуже, если у него помимо тебя ещё несколько любовниц. Будучи не в силах смириться с таким положением дел, обманутая женщина жаждет крови и вынашивает план мести. Ради достижения своей цели она объединяется с женой изменника, и этот союз униженных и оскорблённых оказывается для казановы пострашнее атомной войны.-
Сэмпл: скачать-Релиз от -
Автор рипа: Elheym
Качество: BDRip-AVC (источник: / Blu-ray EUR / 1080p)
Контейнер: MKV
Видео: 1024x426 (2.40:1), 23.976 fps, MPEG-4 AVC, ~2920 kbps avg, 0.279 bit/pixel
Аудио #1: Русский: АС3, 5.1, 48 kHz, ~448 Кбит/с | Профессиональный (полное дублирование) |
Аудио #2: Английский: АС3, 5.1, 48 kHz, ~448 Кбит/с | Оригинал |
Субтитры: Русские (полные), Украинские (полные), Английские (полные, SDH, SDH-Colored)
Главы: Присутствуют, сохранены оригинальные
Размер: 2.91 GB
MediaInfo
Уникальный идентификатор : 222019886010560376389854208664989742621 (0xA707798415F0B641BFAA00665EBA361D)
Полное имя : F:\!Encoding\TEMP_Video\The Other Woman\The.Other.Woman.2014.DUAL.BDRip-AVC.x264.AC3.-HQCLUB.mkv
Формат : Matroska
Версия формата : Version 2
Размер файла : 2,91 Гбайт
Продолжительность : 1 ч. 49 м.
Общий поток : 3820 Кбит/сек
Дата кодирования : UTC 2014-08-21 13:02:33
Программа кодирования : mkvmerge v5.2.0 ('I can't explain') built on Dec 18 2011 18:12:03
Библиотека кодирования : libebml v1.2.3 + libmatroska v1.3.0
Видео
Идентификатор : 1
Формат : AVC
Формат/Информация : Advanced Video Codec
Профиль формата : High@L4.1
Параметр CABAC формата : Да
Параметр ReFrames формата : 13 кадров
Идентификатор кодека : V_MPEG4/ISO/AVC
Продолжительность : 1 ч. 49 м.
Битрейт : 2920 Кбит/сек
Ширина : 1024 пикселя
Высота : 426 пикселей
Соотношение сторон : 2,40:1
Режим частоты кадров : Постоянный
Частота кадров : 23,976 кадра/сек
Цветовое пространство : YUV
Субдискретизация насыщенности : 4:2:0
Битовая глубина : 8 бит
Тип развёртки : Прогрессивная
Бит/(Пиксели*Кадры) : 0.279
Размер потока : 2,17 Гбайт (75%)
Заголовок : Другая женщина / The Other Woman (2014) BDRip-AVC by HQCLUB [Elheym]
Библиотека кодирования : x264 core 142 r2453 ea0ca51
Настройки программы : cabac=1 / ref=13 / deblock=1:-3:-2 / analyse=0x3:0x113 / me=umh / subme=11 / psy=1 / psy_rd=1.04:0.00 / mixed_ref=1 / me_range=32 / chroma_me=1 / trellis=2 / 8x8dct=1 / cqm=0 / deadzone=21,11 / fast_pskip=1 / chroma_qp_offset=-4 / threads=6 / lookahead_threads=1 / sliced_threads=0 / nr=0 / decimate=1 / interlaced=0 / bluray_compat=0 / constrained_intra=0 / bframes=12 / b_pyramid=2 / b_adapt=2 / b_bias=0 / direct=3 / weightb=1 / open_gop=0 / weightp=2 / keyint=240 / keyint_min=23 / scenecut=40 / intra_refresh=0 / rc_lookahead=40 / rc=2pass / mbtree=1 / bitrate=2920 / ratetol=1.0 / qcomp=0.60 / qpmin=10 / qpmax=69 / qpstep=4 / cplxblur=20.0 / qblur=0.5 / vbv_maxrate=50000 / vbv_bufsize=62500 / nal_hrd=none / filler=0 / ip_ratio=1.40 / aq=1:0.90
Язык : English
Default : Да
Forced : Нет
Аудио #1
Идентификатор : 2
Формат : AC-3
Формат/Информация : Audio Coding 3
Расширение режима : CM (complete main)
Параметр Endianness формата : Big
Идентификатор кодека : A_AC3
Продолжительность : 1 ч. 49 м.
Вид битрейта : Постоянный
Битрейт : 448 Кбит/сек
Каналы : 6 каналов
Расположение каналов : Front: L C R, Side: L R, LFE
Частота : 48,0 КГц
Битовая глубина : 16 бит
Метод сжатия : С потерями
Размер потока : 350 Мбайт (12%)
Заголовок : АС3 5.1 @ 448 kbps - Dub, Blu-ray EUR
Язык : Russian
Default : Нет
Forced : Нет
Аудио #2
Идентификатор : 3
Формат : AC-3
Формат/Информация : Audio Coding 3
Расширение режима : CM (complete main)
Параметр Endianness формата : Big
Идентификатор кодека : A_AC3
Продолжительность : 1 ч. 49 м.
Вид битрейта : Постоянный
Битрейт : 448 Кбит/сек
Каналы : 6 каналов
Расположение каналов : Front: L C R, Side: L R, LFE
Частота : 48,0 КГц
Битовая глубина : 16 бит
Метод сжатия : С потерями
Размер потока : 350 Мбайт (12%)
Заголовок : АС3 5.1 @ 448 kbps - Original
Язык : English
Default : Нет
Forced : Нет
Текст #1
Идентификатор : 4
Формат : UTF-8
Идентификатор кодека : S_TEXT/UTF8
Идентификатор кодека/Информация : UTF-8 Plain Text
Заголовок : Full
Язык : Russian
Default : Нет
Forced : Нет
Текст #2
Идентификатор : 5
Формат : UTF-8
Идентификатор кодека : S_TEXT/UTF8
Идентификатор кодека/Информация : UTF-8 Plain Text
Заголовок : Full
Язык : Ukrainian
Default : Нет
Forced : Нет
Текст #3
Идентификатор : 6
Формат : UTF-8
Идентификатор кодека : S_TEXT/UTF8
Идентификатор кодека/Информация : UTF-8 Plain Text
Заголовок : Full
Язык : English
Default : Нет
Forced : Нет
Текст #4
Идентификатор : 7
Формат : UTF-8
Идентификатор кодека : S_TEXT/UTF8
Идентификатор кодека/Информация : UTF-8 Plain Text
Заголовок : Full SDH
Язык : English
Default : Нет
Forced : Нет
Текст #5
Идентификатор : 8
Формат : UTF-8
Идентификатор кодека : S_TEXT/UTF8
Идентификатор кодека/Информация : UTF-8 Plain Text
Заголовок : Full SDH Colored
Язык : English
Default : Нет
Forced : Нет
Меню
00:00:00.000 : :Chapter 01
00:03:06.186 : :Chapter 03
00:05:45.261 : :Chapter 05
00:07:21.274 : :Chapter 07
00:10:21.370 : :Chapter 09
00:14:17.231 : :Chapter 11
00:16:45.421 : :Chapter 13
00:19:47.686 : :Chapter 15
00:21:18.443 : :Chapter 17
00:24:01.648 : :Chapter 19
00:28:16.861 : :Chapter 21
00:32:34.035 : :Chapter 23
00:35:41.180 : :Chapter 25
00:39:06.260 : :Chapter 27
00:41:54.803 : :Chapter 29
00:44:53.315 : :Chapter 31
00:48:33.368 : :Chapter 33
00:52:33.191 : :Chapter 35
00:55:54.976 : :Chapter 37
00:58:20.788 : :Chapter 39
01:00:20.908 : :Chapter 41
01:03:18.711 : :Chapter 43
01:08:39.907 : :Chapter 45
01:11:07.930 : :Chapter 47
01:14:33.302 : :Chapter 49
01:17:25.432 : :Chapter 51
01:22:17.515 : :Chapter 53
01:26:46.409 : :Chapter 55
01:30:07.902 : :Chapter 57
01:35:06.075 : :Chapter 59
01:42:29.810 : :Chapter 61
01:44:31.848 : :Chapter 63
01:49:12.879 : :Chapter 64
x264 log
x264 [info]: frame I:1533 Avg QP:14.78 size:107435
x264 [info]: frame P:33453 Avg QP:17.12 size: 34701
x264 [info]: frame B:122133 Avg QP:19.83 size: 8739
x264 [info]: consecutive B-frames: 2.0% 2.6% 8.4% 18.2% 19.3% 37.5% 5.9% 2.2% 1.3% 0.8% 0.7% 0.5% 0.5%
x264 [info]: ref P L0: 42.0% 10.1% 17.8% 6.3% 6.0% 3.8% 4.0% 1.9% 2.1% 1.5% 1.6% 1.2% 1.4% 0.1% 0.0%
x264 [info]: ref B L0: 67.9% 13.0% 6.3% 3.4% 2.4% 2.1% 1.6% 1.0% 0.8% 0.8% 0.4% 0.2%
x264 [info]: ref B L1: 91.4% 8.6%
Скриншоты
Скачать

Скачать торрент!

Как скачивать? · Что такое торрент? · Рейтинг и ограничения

Сайт не распространяет и не хранит электронные версии произведений, а лишь предоставляет доступ к создаваемому пользователями каталогу ссылок на торрент-файлы, которые содержат только списки хеш-сумм

[Профиль] [ЛС]
Показать сообщения:    
Ответить на тему

Текущее время: Сегодня 23:59

Часовой пояс: GMT + 4



Вы не можете начинать темы
Вы не можете отвечать на сообщения
Вы не можете редактировать свои сообщения
Вы не можете удалять свои сообщения
Вы не можете голосовать в опросах
Вы не можете прикреплять файлы к сообщениям
Вы не можете скачивать файлы