Камень / The Stone (Чо Сарэ / Cho Se-rae) [2013, Корея, драма, HDRip-AVC] + Sub Rus

Ответить на тему
 
Автор Сообщение

user ®

Стаж: 13 лет

Сообщений: 15071

Пост Пост: #1 от 20-Авг-2014 23:10

[Цитировать]

Камень / The Stone
Страна: Корея
Жанр: драма
Год выпуска: 2013
Продолжительность: 1:49:52
Перевод: Субтитры (хардсаб)
Режиссер: Чо Сарэ / Cho Se-rae
В ролях:
Ким Ройха (Босс мафии) — лучший актер Кореи 2001 года
Пак Вонсан (Ингуль, правая рука босса мафии) — известный корейский актер, снимался в более чем в 50 фильмах и сериалах
Чо Донгин (Минсу) — начинающий актер, сыграл настолько блистательно, что сразу же был приглашен легендарным Ким Гидуком, на одну из ролей в его новом фильме «Один на один» (2014)
Описание: Фильм о жизни корейской мафии. Сюжет построен вокруг взаимоотношений шулеров, профессионально играющих на большие ставки, только не в карты, а в настольную игру Го. Что-то среднее между Крестным отцом и «Каталой» с Валерием Гаркалиным
Доп. информация: Перевод с корейского выполнен Александром Динерштейном (http://vk.com/id6383896) одним из сильнейших мастеров Го Европы, который и сам в свое время проходил 5-летнюю стажировку в Корее, а также играл в Го на деньги в местных клубах.
Сэмпл: http://multi-up.com/993644
Качество видео: HDRip
Формат видео: MP4
Видео: H264, 1024x576, 16:9, 23.976 fps, 1441 kbps
Аудио: AAC, 48 kHz, 125 kbps, 2ch
Формат субтитров: hardsub (неотключаемые)
MediaInfo
General
Complete name : D:\TEMP\Stone\9FB4789F.mp4
Format : MPEG-4
Format profile : Base Media
Codec ID : isom
File size : 1.20 GiB
Duration : 1h 49mn
Overall bit rate mode : Variable
Overall bit rate : 1 570 Kbps
Encoded date : UTC 2014-08-15 05:37:34
Tagged date : UTC 2014-08-15 05:37:34
Video
ID : 1
Format : AVC
Format/Info : Advanced Video Codec
Format profile : High@L4.1
Format settings, CABAC : Yes
Format settings, ReFrames : 14 frames
Codec ID : avc1
Codec ID/Info : Advanced Video Coding
Duration : 1h 49mn
Bit rate : 1 441 Kbps
Maximum bit rate : 5 131 Kbps
Width : 1 024 pixels
Height : 576 pixels
Display aspect ratio : 16:9
Frame rate mode : Constant
Frame rate : 23.976 fps
Color space : YUV
Chroma subsampling : 4:2:0
Bit depth : 8 bits
Scan type : Progressive
Bits/(Pixel*Frame) : 0.102
Stream size : 1.11 GiB (92%)
Writing library : x264 core 142 r2453 ea0ca51
Encoding settings : cabac=1 / ref=14 / deblock=1:-2:-2 / analyse=0x3:0x133 / me=tesa / subme=11 / psy=1 / psy_rd=1.00:0.15 / mixed_ref=1 / me_range=24 / chroma_me=1 / trellis=2 / 8x8dct=1 / cqm=0 / deadzone=21,11 / fast_pskip=0 / chroma_qp_offset=-3 / threads=6 / lookahead_threads=1 / sliced_threads=0 / nr=0 / decimate=1 / interlaced=0 / bluray_compat=0 / constrained_intra=0 / bframes=16 / b_pyramid=2 / b_adapt=2 / b_bias=0 / direct=3 / weightb=1 / open_gop=0 / weightp=2 / keyint=240 / keyint_min=23 / scenecut=40 / intra_refresh=0 / rc_lookahead=60 / rc=crf / mbtree=1 / crf=18.0 / qcomp=0.60 / qpmin=0 / qpmax=69 / qpstep=4 / vbv_maxrate=62500 / vbv_bufsize=78125 / crf_max=0.0 / nal_hrd=none / filler=0 / ip_ratio=1.40 / aq=1:1.00
Encoded date : UTC 2014-08-15 05:37:34
Tagged date : UTC 2014-08-15 05:37:46
Audio
ID : 2
Format : AAC
Format/Info : Advanced Audio Codec
Format profile : LC
Codec ID : 40
Duration : 1h 49mn
Bit rate mode : Variable
Bit rate : 125 Kbps
Maximum bit rate : 151 Kbps
Channel(s) : 2 channels
Channel positions : Front: L R
Sampling rate : 48.0 KHz
Compression mode : Lossy
Stream size : 98.4 MiB (8%)
Tagged date : UTC 2014-08-15 05:37:46
Скриншот c названием фильма Скриншоты
Скачать

Скачать торрент! Камень / The Stone (Чо Сарэ / Cho Se-rae) [2013, Корея, драма, HDRip-AVC] + Sub Rus

Как скачивать? · Что такое торрент? · Рейтинг и ограничения

Сайт не распространяет и не хранит электронные версии произведений, а лишь предоставляет доступ к создаваемому пользователями каталогу ссылок на торрент-файлы, которые содержат только списки хеш-сумм

[Профиль] [ЛС]
Показать сообщения:    
Ответить на тему

Текущее время: Сегодня 18:11

Часовой пояс: GMT + 4



Вы не можете начинать темы
Вы не можете отвечать на сообщения
Вы не можете редактировать свои сообщения
Вы не можете удалять свои сообщения
Вы не можете голосовать в опросах
Вы не можете прикреплять файлы к сообщениям
Вы не можете скачивать файлы