Дуэль / The Duel / Kuet chin chi gam ji din (Вэй Кеунг Лау / Wai Keung Lau) [2000, Гонконг, Китай, боевик, фантастика, приключения, HDRip] DVO + original Chin + Sub (rus, eng)

Ответить на тему
 
Автор Сообщение

user ®

Стаж: 13 лет

Сообщений: 15071

Пост Пост: #1 от 20-Авг-2014 20:00

[Цитировать]

Дуэль / The Duel / Kuet chin chi gam ji din- -Страна: Гонконг, Китай
Жанр: боевик, фантастика, приключения
Год выпуска: 2000
Продолжительность: 01:45:38-Перевод: Профессиональный (двухголосый закадровый) [DVD9]-Cубтитры: русские, английские [отдельно]
Оригинальная аудиодорожка: китайский
Режиссер: Вэй Кеунг Лау / Wai Keung Lau
В ролях: Энди Лау, Экин Чен, Ник Ченг , Вики Зао, Кристи Янг, Патрик Там, Элвис Цуи...
Описание: Этим воинам нет равных в поднебесной. Над Великой Китайской империей сгущаются тучи коварного заговора. И в это неспокойное время древнюю столицу облетает сенсационная весть: непревзойденный мастер боевых искусств Ку-Синг вызывает на поединок гения кунг-фу Снежного Саймона! Одновременно в городе происходят странные события: неуловимый злодей убивает знаменитых воинов и ремесленников. Подозрения па-дают на Снежного Саймона, но бесстрашный имперский агент Девятый Дракон уверен в невиновно-сти своего лучшего друга, ставшего жертвой таинственных интриг.
Он отправляется по следу коварного убийцы, не догадываясь, что грядущая дуэль двух Божественных Воителей на крышах Запретного Города станет ключом к разгадке этой головоломкие. Новый масштабный приключенческий боевик знаменитого Эндрю Лау, в котором захваты-вающие дух сцены восточных единоборств, изящные придворные интриги и блистательный детективный сюжет гармонично сочетаются c ненавязчивым юмором. Этот высокобюджетный фильм снят по мотивам восточных легенд и популярнейших романов о противостоянии двух легендарных мастеров кунг-фу Йип Ку-Синга и Снежного Саймона.
Релиз от -
Сэмпл: http://multi-up.com/993565
Качество видео: HDRip
Формат видео: AVI
Видео: MPEG-4 Visual at 2115 Кбит/сек; 704 x 400 (1.760) at 24.000 fps
Аудио: AC-3 at 384 Кбит/сек; 6 каналов, 48,0 КГц [DVO]
Аудио: AC-3 at 448 Кбит/сек; 6 каналов, 48,0 КГц [Chin]
Автор -
MediaInfo
Общее
Полное имя : D:\Фильмы\Азиатские\Дуэль\The Duel.2000.HDRip.XviD.2200MB. rip by [Assassin's Creed]\The Duel.2000.HDRip.XviD.2200MB. rip by [Assassin's Creed].avi
Формат : AVI
Формат/Информация : Audio Video Interleave
Профиль формата : OpenDML
Размер файла : 2,19 Гбайт
Продолжительность : 1 ч. 45 м.
Общий поток : 2964 Кбит/сек
Программа кодирования : VirtualDubMod 1.5.10.2 (build 2540/release)
Библиотека кодирования : VirtualDubMod build 2540/release
Видео
Идентификатор : 0
Формат : MPEG-4 Visual
Профиль формата : Advanced Simple@L5
Параметр BVOP формата : 1
Параметр QPel формата : Нет
Параметр GMC формата : Без точки перехода
Параметр матрицы формата : Default (MPEG)
Идентификатор кодека : XVID
Идентификатор кодека/Подсказка : XviD
Продолжительность : 1 ч. 45 м.
Битрейт : 2115 Кбит/сек
Ширина : 704 пикселя
Высота : 400 пикселей
Соотношение сторон : 16:9
Частота кадров : 24,000 кадра/сек
Цветовое пространство : YUV
Субдискретизация насыщенности : 4:2:0
Битовая глубина : 8 бит
Тип развёртки : Прогрессивная
Метод сжатия : С потерями
Бит/(Пиксели*Кадры) : 0.313
Размер потока : 1,56 Гбайт (71%)
Библиотека кодирования : XviD 1.2.1 (UTC 2008-12-04)
Аудио #1
Идентификатор : 1
Формат : AC-3
Формат/Информация : Audio Coding 3
Расширение режима : CM (complete main)
Параметр Endianness формата : Big
Идентификатор кодека : 2000
Продолжительность : 1 ч. 45 м.
Вид битрейта : Постоянный
Битрейт : 384 Кбит/сек
Каналы : 6 каналов
Расположение каналов : Front: L C R, Side: L R, LFE
Частота : 48,0 КГц
Битовая глубина : 16 бит
Метод сжатия : С потерями
Размер потока : 290 Мбайт (13%)
Выравнивание : Разделение по промежуткам
Продолжительность промежутка : 42 мс. (1,00 видеокадр)
Время предзагрузки промежутка : 500 мс.
Аудио #2
Идентификатор : 2
Формат : AC-3
Формат/Информация : Audio Coding 3
Расширение режима : CM (complete main)
Параметр Endianness формата : Big
Идентификатор кодека : 2000
Продолжительность : 1 ч. 45 м.
Вид битрейта : Постоянный
Битрейт : 448 Кбит/сек
Каналы : 6 каналов
Расположение каналов : Front: L C R, Side: L R, LFE
Частота : 48,0 КГц
Битовая глубина : 16 бит
Метод сжатия : С потерями
Размер потока : 338 Мбайт (15%)
Выравнивание : Разделение по промежуткам
Продолжительность промежутка : 42 мс. (1,00 видеокадр)
Время предзагрузки промежутка : 500 мс.
Общее
Полное имя : D:\Фильмы\Азиатские\Дуэль\The Duel.2000.HDRip.XviD.2200MB. rip by [Assassin's Creed]\The Duel.2000.HDRip.XviD.2200MB. rip by [Assassin's Creed].eng.srt
Формат : SubRip
Размер файла : 98,8 Кбайт
Текст
Формат : SubRip
Метод сжатия : Без потерь
Общее
Полное имя : D:\Фильмы\Азиатские\Дуэль\The Duel.2000.HDRip.XviD.2200MB. rip by [Assassin's Creed]\The Duel.2000.HDRip.XviD.2200MB. rip by [Assassin's Creed].rus.srt
Формат : SubRip
Размер файла : 126 Кбайт
Текст
Формат : SubRip
Метод сжатия : Без потерь
Скриншот c названием фильма Скриншоты
Скачать

Скачать торрент! Дуэль / The Duel / Kuet chin chi gam ji din (Вэй Кеунг Лау / Wai Keung Lau) [2000, Гонконг, Китай, боевик, фантастика, приключения, HDRip] DVO + original Chin + Sub (rus, eng)

Как скачивать? · Что такое торрент? · Рейтинг и ограничения

Сайт не распространяет и не хранит электронные версии произведений, а лишь предоставляет доступ к создаваемому пользователями каталогу ссылок на торрент-файлы, которые содержат только списки хеш-сумм

[Профиль] [ЛС]
Показать сообщения:    
Ответить на тему

Текущее время: Сегодня 21:26

Часовой пояс: GMT + 4



Вы не можете начинать темы
Вы не можете отвечать на сообщения
Вы не можете редактировать свои сообщения
Вы не можете удалять свои сообщения
Вы не можете голосовать в опросах
Вы не можете прикреплять файлы к сообщениям
Вы не можете скачивать файлы