Небо падших (Валентин Донсков) [2014, драма, WEBRip]

Ответить на тему
 
Автор Сообщение

user ®

Стаж: 8 лет

Сообщений: 20008

Пост Пост: #1 от 20-Авг-2014 20:00

[Цитировать]

Небо падших
Жанр: драма
Год выпуска: 2014
Продолжительность: 02:01:48
Режиссёр: Валентин Донсков
В ролях: Кирилл Плетнёв, Екатерина Вилкова, Анастасия Панина, Даниил Воробьев, Александр Сирин, Александр Наумов, Егор Баринов, Владислав Ветров, Александр Печенин, Дмитрий Калистратов
Описание: Конец 1980-х. Павел Шарманов, будучи студентом авиационного института, всегда бредящий небом, начинал сторожем в музее авиации под открытым небом. Эта работа стремительно и кардинально изменила его дальнейшую жизнь. 1990-е. Перестройка. Деньги, власть, взятки, предательство друзей. Шарманов — основатель и владелец крупнейшей авиационной компании в стране. Все блага мира у его ног. Бери, что хочешь. Единственно, что недоступно успешному молодому мужчине — любовь. Он не ищет ее, но она найдет его «совсем нежданно», закрутит в лихом вихре, поднимет высоко в небеса, заставит чувствовать, парить и не придавать значения материальному… Чем выше и быстрее взлетаешь, тем быстрее и больнее падаешь. Любовь милосердна, но порой и жестока, и как любить, каждый решает сам…
Сэмпл: http://multi-up.com/993697
Качество видео: WEBRip
Формат видео: AVI
Видео: 720x384 (1.85:1), 24.000 fps, XviD 1.2.1 ~1469 kbps avg, 0.221 bit/pixel
Аудио: 44.1 kHz, AC-3, 2 ch, ~128 kbps

MediaInfo
General
Complete name : F:\Download\Nebo.padsh1h..avi
Format : AVI
Format/Info : Audio Video Interleave
File size : 1.37 GiB
Duration : 2h 1mn
Overall bit rate : 1 607 Kbps
Writing application : VirtualDubMod 1.5.10.3 | www.virtualdub-fr.org || (build 2550/release)
Writing library : VirtualDubMod build 2550/release
Video
ID : 0
Format : MPEG-4 Visual
Format profile : Advanced Simple@L5
Format settings, BVOP : 2
Format settings, QPel : No
Format settings, GMC : No warppoints
Format settings, Matrix : Default (MPEG)
Codec ID : XVID
Codec ID/Hint : XviD
Duration : 2h 1mn
Bit rate : 1 469 Kbps
Width : 720 pixels
Height : 384 pixels
Display aspect ratio : 1.85:1
Frame rate : 24.000 fps
Color space : YUV
Chroma subsampling : 4:2:0
Bit depth : 8 bits
Scan type : Progressive
Compression mode : Lossy
Bits/(Pixel*Frame) : 0.221
Stream size : 1.25 GiB (91%)
Writing library : XviD 1.2.1 (UTC 2008-12-04)
Audio
ID : 1
Format : AC-3
Format/Info : Audio Coding 3
Mode extension : CM (complete main)
Format settings, Endianness : Big
Codec ID : 2000
Duration : 2h 1mn
Bit rate mode : Constant
Bit rate : 128 Kbps
Channel(s) : 2 channels
Channel positions : Front: L R
Sampling rate : 44.1 KHz
Bit depth : 16 bits
Compression mode : Lossy
Stream size : 112 MiB (8%)
Alignment : Split accross interleaves
Interleave, duration : 42 ms (1.00 video frame)
Interleave, preload duration : 500 ms
Скриншот c названием фильма Скриншоты
Скачать

Скачать торрент!

Как скачивать? · Что такое торрент? · Рейтинг и ограничения

Сайт не распространяет и не хранит электронные версии произведений, а лишь предоставляет доступ к создаваемому пользователями каталогу ссылок на торрент-файлы, которые содержат только списки хеш-сумм

[Профиль] [ЛС]
Показать сообщения:    
Ответить на тему

Текущее время: Сегодня 01:27

Часовой пояс: GMT + 4



Вы не можете начинать темы
Вы не можете отвечать на сообщения
Вы не можете редактировать свои сообщения
Вы не можете удалять свои сообщения
Вы не можете голосовать в опросах
Вы не можете прикреплять файлы к сообщениям
Вы не можете скачивать файлы