Любовь по рецепту и без / Любовь, секс и химия / Better Living Through Chemistry (Джофф Мур / Geoff Moore, Дэвид Посаментир / David Posamentier) [2014, США, Драма, комедия, BDRip-AVC] Dub + Original (Eng) + Sub (rus, eng)

Ответить на тему
 
Автор Сообщение

user ®

Стаж: 7 лет 7 месяцев

Сообщений: 20008

Пост Пост: #1 от 20-Авг-2014 20:00

[Цитировать]

Любовь по рецепту и без / Любовь, секс и химия
Better Living Through Chemistry
«Отпускается без рецепта»


Страна: США
Студия: Aegis Film Fund, Altus Productions, Ealing Metro International, Occupant Films
Жанр: драма, комедия
Год выпуска: 2014
Продолжительность: 01:31:43
Перевод: Профессиональный (полное дублирование) [Лицензия R5]
Cубтитры: Russian, English
Оригинальная аудиодорожка: English
Режиссер:
Джофф Мур / Geoff Moore, Дэвид Посаментир / David Posamentier
В ролях:
Сэм Рокуэлл, Оливия Уайлд, Мишель Монахэн, Бен Шварц, Кен Ховард, Джейн Фонда, Рэй Лиотта, Норберт Лео Батц, Дженн Харрис, Харрисон Хольцер
Описание:
Даг Варни — скромный фармацевт и подкаблучник. Всю жизнь окружающие пользовались его мягким характером и не принимали всерьёз. Но однажды произошла встреча, которая изменила всё. Её зовут Элизабет, она яркая, сексуальная, а ее девиз: «Жить нужно в кайф!». Она открыла глаза Дагу на то, что вся его жизнь сера и уныла, а ключ к успеху лежит у него перед носом. Стоит лишь протянуть руку. С этого момента Дага не узнать. Теперь он уверен в себе, женщины без ума от него в постели, а в спорте ему нет равных. Но увлекшись своей новой жизнью, он заходит слишком далеко, а, как известно, за все в жизни приходится платить.

Релиз:
Автор рипа: Stalker oK
Сэмпл: multi-up
Качество видео: BDRip-AVC [BDRemux 1080p / NovaLan / Sergei7721]
Формат видео: MKV
Видео кодек: AVC
Аудио кодек: AC3
Видео: 2513 Кбит/сек, 1152*480 (2,40:1), в 23,976 кадр/сек, AVC
Аудио #1: Russian, 448 Кбит/сек, 48,0 КГц, 16 бит, 6 канала(ов), AC-3
Аудио #2: English, 448 Кбит/сек, 48,0 КГц, 16 бит, 6 канала(ов), AC-3

MediaInfo
Общее
Уникальный идентификатор : 215246657938790221087717340336209525246 (0xA1EEFF96D698832B82F688CE6BEFF9FE)
Полное имя : G:\Любовь по рецепту и без Любовь, секс и химия\Ljubov.po.receptu.i.bez.2014.BDRip-AVC.Dub.2.18Gb...stalkerok.new-team.mkv
Формат : Matroska
Размер файла : 2,19 Гбайт
Продолжительность : 1 ч. 31 м.
Общий поток : 3411 Кбит/сек
Название фильма : Better Living Through Chemistry (2014) (New-Team) (Rip by Stalker oK)
Дата кодирования : UTC 2014-08-19 16:45:28
Программа кодирования : mkvmerge v6.1.0 ('Old Devil') built on Mar 4 2013 09:10:42
Библиотека кодирования : libebml v1.3.0 + libmatroska v1.4.0
Видео
Идентификатор : 1
Формат : AVC
Формат/Информация : Advanced Video Codec
Профиль формата : High@L4.1
Параметр CABAC формата : Да
Параметр ReFrames формата : 10 кадры
Идентификатор кодека : V_MPEG4/ISO/AVC
Продолжительность : 1 ч. 31 м.
Битрейт : 2513 Кбит/сек
Ширина : 1152 пикс.
Высота : 480 пикс.
Соотношение сторон : 2,40:1
Частота кадров : 23,976 кадр/сек
Цветовое пространство : YUV
Подвыборка цветности : 4:2:0
Битовая глубина : 8 бит
Тип развёртки : Прогрессивная
Бит/(Пиксели*Кадры) : 0.190
Размер потока : 1,57 Гбайт (72%)
Библиотека кодирования : x264 core 142 r2431 ac76440
Настройки программы : cabac=1 / ref=10 / deblock=1:-3:-3 / analyse=0x3:0x133 / me=umh / subme=11 / psy=1 / psy_rd=1.00:0.10 / mixed_ref=1 / me_range=48 / chroma_me=1 / trellis=2 / 8x8dct=1 / cqm=0 / deadzone=21,11 / fast_pskip=0 / chroma_qp_offset=-3 / threads=12 / lookahead_threads=3 / sliced_threads=0 / nr=0 / decimate=0 / interlaced=0 / bluray_compat=0 / constrained_intra=0 / bframes=11 / b_pyramid=2 / b_adapt=2 / b_bias=0 / direct=3 / weightb=1 / open_gop=0 / weightp=2 / keyint=240 / keyint_min=23 / scenecut=40 / intra_refresh=0 / rc_lookahead=80 / rc=2pass / mbtree=0 / bitrate=2513 / ratetol=1.0 / qcomp=0.70 / qpmin=0 / qpmax=69 / qpstep=4 / cplxblur=20.0 / qblur=0.5 / vbv_maxrate=25000 / vbv_bufsize=30000 / nal_hrd=none / filler=0 / ip_ratio=1.20 / pb_ratio=1.10 / aq=2:0.80
Аудио #1
Идентификатор : 2
Формат : AC-3
Формат/Информация : Audio Coding 3
Расширение режима : CM (complete main)
Идентификатор кодека : A_AC3
Продолжительность : 1 ч. 31 м.
Вид битрейта : Постоянный
Битрейт : 448 Кбит/сек
Канал(ы) : 6 канала(ов)
Расположение каналов : Front: L C R, Side: L R, LFE
Частота : 48,0 КГц
Битовая глубина : 16 бит
Метод сжатия : С потерями
Размер потока : 294 Мбайт (13%)
Язык : Russian
Аудио #2
Идентификатор : 3
Формат : AC-3
Формат/Информация : Audio Coding 3
Расширение режима : CM (complete main)
Идентификатор кодека : A_AC3
Продолжительность : 1 ч. 31 м.
Вид битрейта : Постоянный
Битрейт : 448 Кбит/сек
Канал(ы) : 6 канала(ов)
Расположение каналов : Front: L C R, Side: L R, LFE
Частота : 48,0 КГц
Битовая глубина : 16 бит
Метод сжатия : С потерями
Размер потока : 294 Мбайт (13%)
Язык : English
Текст #1
Идентификатор : 4
Формат : UTF-8
Идентификатор кодека : S_TEXT/UTF8
Идентификатор кодека/Информация : UTF-8 Plain Text
Язык : Russian
Текст #2
Идентификатор : 5
Формат : UTF-8
Идентификатор кодека : S_TEXT/UTF8
Идентификатор кодека/Информация : UTF-8 Plain Text
Язык : English
Меню
00:00:00.000 : :Chapter 01
00:05:23.573 : :Chapter 02
00:10:36.427 : :Chapter 03
00:17:11.071 : :Chapter 04
00:23:22.776 : :Chapter 05
00:27:29.230 : :Chapter 06
00:31:21.504 : :Chapter 07
00:38:33.394 : :Chapter 08
00:42:44.311 : :Chapter 09
00:49:17.913 : :Chapter 10
00:54:55.166 : :Chapter 11
01:00:05.852 : :Chapter 12
01:04:24.402 : :Chapter 13
01:10:09.997 : :Chapter 14
01:14:41.351 : :Chapter 15
01:22:01.416 : :Chapter 16
01:31:43.247 : :Chapter 17
Скриншоты
Скачать

Скачать торрент!

Как скачивать? · Что такое торрент? · Рейтинг и ограничения

Сайт не распространяет и не хранит электронные версии произведений, а лишь предоставляет доступ к создаваемому пользователями каталогу ссылок на торрент-файлы, которые содержат только списки хеш-сумм

[Профиль] [ЛС]
Показать сообщения:    
Ответить на тему

Текущее время: Сегодня 06:08

Часовой пояс: GMT + 4



Вы не можете начинать темы
Вы не можете отвечать на сообщения
Вы не можете редактировать свои сообщения
Вы не можете удалять свои сообщения
Вы не можете голосовать в опросах
Вы не можете прикреплять файлы к сообщениям
Вы не можете скачивать файлы