Саботаж / Sabotage (Дэвид Эйр / David Ayer) [2014 г., США, боевик, триллер, драма, криминал, BDRip-AVC] Dub + AVO (Володарский, Горчаков) + Original Eng + Sub (Rus, Eng)

Ответить на тему
 
Автор Сообщение

user ®

Стаж: 7 лет 7 месяцев

Сообщений: 20008

Пост Пост: #1 от 20-Авг-2014 20:00

[Цитировать]

-Саботаж / Sabotage«Неудержимые снова в деле» Страна: США
Студия: Albert S. Ruddy Productions, Brentwood Productions, Crave Films, DEA Productions, Open Road Films (II), QED International, Roth Films
Жанр: Боевик, триллер, драма, криминал
Год выпуска: 2014
Продолжительность: 01:49:40-Перевод 1: Профессиональный (полное дублирование)
Перевод 2: Авторский (одноголосый, закадровый), Л. Володарский
Перевод 3: Авторский (одноголосый, закадровый), В. Горчаков
Оригинальная аудиодорожка: английский
Cубтитры: русские, английские
Режиссер: Дэвид Эйр / David Ayer
В ролях: Арнольд Шварценеггер, Сэм Уортингтон, Оливия Уильямс, Терренс Ховард, Джо Манганьелло, Джош Холлоуэй, Мирей Инос, Мартин Донован, Макс Мартини, Кевин Вэнс
Описание: История начинается с операции элитного подразделения из управления по борьбе с наркотиками, нагрянувшего на явочную квартиру наркокартеля. Команда решает скрыть от начальства, что в результате налёта они обогатились на миллионы долларов, но вскоре хранить тайну становится всё сложнее: кто-то по одному убирает всех участвовавших в операции.-
Сэмпл: скачать-Релиз от -
Автор рипа: Elheym
Качество: BDRip-AVC (источник: [url=http://***/forum/viewtopic.php?t=4804085]Talian70[/url] / Blu-ray Remux / 1080p)
Контейнер: MKV
Видео: 1024x554 (1.85:1), 23.976 fps, MPEG-4 AVC, ~2990 kbps avg, 0.220 bit/pixel
Аудио #1: Русский: AC3, 5.1, 48 kHz, ~384 Кбит/с | Профессиональный (полное дублирование) |
Аудио #2: Английский: AC3, 5.1, 48 kHz, ~384 Кбит/с | Оригинал |
Аудио #3: Русский: AC3, 5.1, 48 kHz, ~384 Кбит/с | Авторский (одноголосый, закадровый), Володарский | (отдельно, в составе раздачи)
Аудио #4: Русский: AC3, 5.1, 48 kHz, ~384 Кбит/с | Авторский (одноголосый, закадровый), Горчаков | (отдельно, в составе раздачи)
Субтитры: Русские (полные: Notabenoid, Матвеев), Английские (полные)
Главы: Присутствуют, сохранены оригинальные
Размер: 2.87 GB
MediaInfo
Уникальный идентификатор : 211895301086003947031476452704319593285 (0x9F698CF06DB4F9A7BC253FBFB33A5B45)
Полное имя : Sabotage.2014.DUAL.BDRip-AVC.x264.AC3.-HQCLUB.mkv
Формат : Matroska
Версия формата : Version 2
Размер файла : 2,88 Гбайт
Продолжительность : 1 ч. 49 м.
Общий поток : 3757 Кбит/сек
Дата кодирования : UTC 2014-08-19 15:34:48
Программа кодирования : mkvmerge v5.2.0 ('I can't explain') built on Dec 18 2011 18:12:03
Библиотека кодирования : libebml v1.2.3 + libmatroska v1.3.0
Видео
Идентификатор : 1
Формат : AVC
Формат/Информация : Advanced Video Codec
Профиль формата : High@L4.1
Параметр CABAC формата : Да
Параметр ReFrames формата : 14 кадров
Идентификатор кодека : V_MPEG4/ISO/AVC
Продолжительность : 1 ч. 49 м.
Битрейт : 2990 Кбит/сек
Ширина : 1024 пикселя
Высота : 554 пикселя
Соотношение сторон : 1,85:1
Режим частоты кадров : Постоянный
Частота кадров : 23,976 кадра/сек
Цветовое пространство : YUV
Субдискретизация насыщенности : 4:2:0
Битовая глубина : 8 бит
Тип развёртки : Прогрессивная
Бит/(Пиксели*Кадры) : 0.220
Размер потока : 2,23 Гбайт (78%)
Заголовок : Саботаж / Sabotage (2014) BDRip-AVC by HQCLUB [Elheym]
Библиотека кодирования : x264 core 142 r2453 ea0ca51
Настройки программы : cabac=1 / ref=14 / deblock=1:-3:-2 / analyse=0x3:0x113 / me=umh / subme=11 / psy=1 / psy_rd=1.00:0.00 / mixed_ref=1 / me_range=32 / chroma_me=1 / trellis=2 / 8x8dct=1 / cqm=0 / deadzone=21,11 / fast_pskip=1 / chroma_qp_offset=-4 / threads=6 / lookahead_threads=1 / sliced_threads=0 / nr=0 / decimate=1 / interlaced=0 / bluray_compat=0 / constrained_intra=0 / bframes=11 / b_pyramid=2 / b_adapt=2 / b_bias=0 / direct=3 / weightb=1 / open_gop=0 / weightp=2 / keyint=240 / keyint_min=23 / scenecut=40 / intra_refresh=0 / rc_lookahead=40 / rc=2pass / mbtree=1 / bitrate=2990 / ratetol=1.0 / qcomp=0.60 / qpmin=10 / qpmax=69 / qpstep=4 / cplxblur=20.0 / qblur=0.5 / vbv_maxrate=50000 / vbv_bufsize=62500 / nal_hrd=none / filler=0 / ip_ratio=1.40 / aq=1:0.90
Язык : English
Default : Да
Forced : Нет
Аудио #1
Идентификатор : 2
Формат : AC-3
Формат/Информация : Audio Coding 3
Расширение режима : CM (complete main)
Параметр Endianness формата : Big
Идентификатор кодека : A_AC3
Продолжительность : 1 ч. 49 м.
Вид битрейта : Постоянный
Битрейт : 384 Кбит/сек
Каналы : 6 каналов
Расположение каналов : Front: L C R, Side: L R, LFE
Частота : 48,0 КГц
Битовая глубина : 16 бит
Метод сжатия : С потерями
Размер потока : 301 Мбайт (10%)
Заголовок : АС3 5.1 @ 384 kbps - Dub, Blu-Ray RUS
Язык : Russian
Default : Нет
Forced : Нет
Аудио #2
Идентификатор : 3
Формат : AC-3
Формат/Информация : Audio Coding 3
Расширение режима : CM (complete main)
Параметр Endianness формата : Big
Идентификатор кодека : A_AC3
Продолжительность : 1 ч. 49 м.
Вид битрейта : Постоянный
Битрейт : 384 Кбит/сек
Каналы : 6 каналов
Расположение каналов : Front: L C R, Side: L R, LFE
Частота : 48,0 КГц
Битовая глубина : 16 бит
Метод сжатия : С потерями
Размер потока : 301 Мбайт (10%)
Заголовок : АС3 5.1 @ 384 kbps - Original
Язык : English
Default : Нет
Forced : Нет
Текст #1
Идентификатор : 4
Формат : UTF-8
Идентификатор кодека : S_TEXT/UTF8
Идентификатор кодека/Информация : UTF-8 Plain Text
Заголовок : Full, Notabenoid
Язык : Russian
Default : Нет
Forced : Нет
Текст #2
Идентификатор : 5
Формат : UTF-8
Идентификатор кодека : S_TEXT/UTF8
Идентификатор кодека/Информация : UTF-8 Plain Text
Заголовок : Full, Matveev
Язык : Russian
Default : Нет
Forced : Нет
Текст #3
Идентификатор : 6
Формат : UTF-8
Идентификатор кодека : S_TEXT/UTF8
Идентификатор кодека/Информация : UTF-8 Plain Text
Заголовок : Full
Язык : English
Default : Нет
Forced : Нет
Меню
00:00:00.000 : :Chapter 01
00:09:58.556 : :Chapter 02
00:13:13.125 : :Chapter 03
00:19:44.308 : :Chapter 04
00:25:16.932 : :Chapter 05
00:30:09.599 : :Chapter 06
00:34:21.976 : :Chapter 07
00:37:33.376 : :Chapter 08
00:43:00.744 : :Chapter 09
00:48:32.117 : :Chapter 10
00:53:13.106 : :Chapter 11
00:57:38.621 : :Chapter 12
01:03:43.778 : :Chapter 13
01:07:59.450 : :Chapter 14
01:14:38.557 : :Chapter 15
01:18:42.551 : :Chapter 16
01:22:41.164 : :Chapter 17
01:28:49.490 : :Chapter 18
01:35:39.316 : :Chapter 19
01:42:47.828 : :Chapter 20
01:49:39.990 : :Chapter 21
x264 log
x264 [info]: frame I:1292 Avg QP:15.46 size: 92705
x264 [info]: frame P:41816 Avg QP:18.54 size: 29855
x264 [info]: frame B:114660 Avg QP:20.72 size: 9490
x264 [info]: consecutive B-frames: 5.5% 5.9% 14.0% 18.9% 19.0% 26.5% 5.1% 1.0% 1.2% 1.1% 0.7% 0.9%
x264 [info]: ref P L0: 51.3% 11.2% 15.5% 5.5% 4.1% 2.9% 2.4% 1.4% 1.2% 1.0% 0.9% 0.8% 0.7% 0.7% 0.3% 0.0%
x264 [info]: ref B L0: 76.8% 10.5% 4.8% 2.2% 1.5% 1.2% 1.0% 0.6% 0.5% 0.4% 0.3% 0.2% 0.1%
x264 [info]: ref B L1: 93.1% 6.9%
Скриншоты
Скачать

Скачать торрент!

Как скачивать? · Что такое торрент? · Рейтинг и ограничения

Сайт не распространяет и не хранит электронные версии произведений, а лишь предоставляет доступ к создаваемому пользователями каталогу ссылок на торрент-файлы, которые содержат только списки хеш-сумм

[Профиль] [ЛС]
Показать сообщения:    
Ответить на тему

Текущее время: Сегодня 14:47

Часовой пояс: GMT + 4



Вы не можете начинать темы
Вы не можете отвечать на сообщения
Вы не можете редактировать свои сообщения
Вы не можете удалять свои сообщения
Вы не можете голосовать в опросах
Вы не можете прикреплять файлы к сообщениям
Вы не можете скачивать файлы