Револьвер Рани / Revolver Rani (Сай Кабир / Sai Kabir) [2014, Индия, Боевик, драма, мелодрама, DVDRip] Sub Rus

Ответить на тему
 
Автор Сообщение

user ®

Стаж: 12 лет

Сообщений: 15092

Пост Пост: #1 от 20-Авг-2014 10:30

[Цитировать]

Револьвер Рани / Revolver Rani
Страна: Индия
Жанр: Боевик, драма, мелодрама
Год выпуска: 2014
Продолжительность: 02:11:12
Перевод: Субтитры
Cубтитры: русские
Оригинальная аудиодорожка: хинди
Режиссер: Сай Кабир / Sai Kabir
В ролях: Кангана Ранаут, Вир Дас, Закир Хуссэйн, Кумуд Мишра, Пиюш Мишра, Панкадж Сарасват
Описание: На враждебной земле Чамбал, которая является родиной повстанцев, политиков, оружий и смертей, ты должен выжить с оружием в руках, либо умереть от него. У Алки Сингх в этом городе нет друзей, есть только маленькая партия, да впридачу со смертельными врагами, которые готовы ей в любую минуту пустить пулю в лоб.Револьвер Рани является необычной сатирической историей, которая разворачивается на фоне политики. Алка Сингх является лидером политической партии, да ещё и безумно влюблена в восходящую звезду Болливуда, Рохана Капура. Выборы в Гвалиоре ожесточаются с появлением конкурента Алки, партии Томар, которая жаждет власти и хочет убрать с поле боя Алку. Но наша героиня не так проста, как кажется на первый взгляд...
Доп. информация: Релиз группы : KhushiKhiladi
Перевод субтитров: Honey & Haseena (Спасибо!)
Сэмпл: http://multi-up.com/993539
Качество видео: DVDRip
Формат видео: AVI
Видео: XviD MPEG-4, 720x304 (2.37:1), 23.976 fps, 1369 kbps avg
Аудио: Hindi AC3 Dolby Digital, 48 kHz, 2/0 (L,R) ch, 192.00 kbps avg
Формат субтитров: hardsub (неотключаемые)
MediaInfo
General
Complete name : F:\Revolver.Rani.2014.DVDRip.XviD.KhushiKhiladi.avi
Format : AVI
Format/Info : Audio Video Interleave
File size : 1.44 GiB
Duration : 2h 11mn
Overall bit rate : 1 569 Kbps
Writing application : VirtualDubMod 1.5.10.2 (build 2542/release)
Writing library : VirtualDubMod build 2542/release
Video
ID : 0
Format : MPEG-4 Visual
Format profile : AdvancedSimple@L5
Format settings, BVOP : Yes
Format settings, QPel : No
Format settings, GMC : No warppoints
Format settings, Matrix : Default (H.263)
Muxing mode : Packed bitstream
Codec ID : XVID
Codec ID/Hint : XviD
Duration : 2h 11mn
Bit rate : 1 370 Kbps
Width : 720 pixels
Height : 304 pixels
Display aspect ratio : 2.35
Frame rate : 23.976 fps
Resolution : 24 bits
Colorimetry : 4:2:0
Scan type : Progressive
Bits/(Pixel*Frame) : 0.261
Stream size : 1.26 GiB (87%)
Writing library : XviD 64
Audio
ID : 1
Format : AC-3
Format/Info : Audio Coding 3
Codec ID : 2000
Duration : 2h 11mn
Bit rate mode : Constant
Bit rate : 192 Kbps
Channel(s) : 2 channels
Channel positions : L R
Sampling rate : 48.0 KHz
Stream size : 180 MiB (12%)
Alignment : Split accross interleaves
Interleave, duration : 64 ms (1.53 video frames)
Interleave, preload duration : 500 ms
Скриншот c названием фильма Скриншоты
Скачать

Скачать торрент! Револьвер Рани / Revolver Rani (Сай Кабир / Sai Kabir) [2014, Индия, Боевик, драма, мелодрама, DVDRip] Sub Rus

Как скачивать? · Что такое торрент? · Рейтинг и ограничения

Сайт не распространяет и не хранит электронные версии произведений, а лишь предоставляет доступ к создаваемому пользователями каталогу ссылок на торрент-файлы, которые содержат только списки хеш-сумм

[Профиль] [ЛС]
Показать сообщения:    
Ответить на тему

Текущее время: Сегодня 11:12

Часовой пояс: GMT + 4



Вы не можете начинать темы
Вы не можете отвечать на сообщения
Вы не можете редактировать свои сообщения
Вы не можете удалять свои сообщения
Вы не можете голосовать в опросах
Вы не можете прикреплять файлы к сообщениям
Вы не можете скачивать файлы