Окулус / Oculus (Майк Флэнеган / Mike Flanagan) [2013, США, ужасы, триллер, BDRip 720p] Dub (iTunes Russia) + Original Eng + Sub Eng

Ответить на тему
 
Автор Сообщение

user ®

Стаж: 7 лет 7 месяцев

Сообщений: 20008

Пост Пост: #1 от 20-Авг-2014 10:30

[Цитировать]

-Хочешь жить – закрой глаза-Окулус / Oculus- Страна: США
Жанр: ужасы, триллер
Год выпуска: 2013
Продолжительность: 01:44:03
Перевод: Профессиональный (дублированный) |iTunes Russia|
Cубтитры: английские
Оригинальная аудиодорожка: английский-Режиссер: Майк Флэнеган / Mike Flanagan
В ролях: Карен Гиллан, Брентон Туэйтес, Кэти Сакхофф, Рори Кокрейн, Анналиса Бассо, Гаррет Райан
Описание: Смерть родителей сильно повлияла на судьбу двух осиротевших детей. По прошествии времени, в двадцатилетнем возрасте, сестра все еще продолжает так считать и хочет доказать брату, что привидение, вышедшее из зеркала, стало причиной гибели близких людей и всех случившихся последующих бед…

Доп. информация:
Сохранены оригинальные чаптеры как на Blu-ray.
Oculus (2013) 1080p BD-Remux
Сэмпл
Качество видео: BDRip 720p
Формат видео: MKV
Видео: 1280x534 at 23.976 fps, x264@L4.1, ~6316 kbps avg
Аудио 1: Русский: 48 kHz, AC3, 3/2 (L,C,R,l,r) + LFE ch, ~384.00 kbps avg |Дубляж, iTunes Russia|
Аудио 2: Английский: 48 kHz, AC3, 3/2 (L,C,R,l,r) + LFE ch, ~640.00 kbps avg
Формат субтитров: softsub (SRT)
Доп. информация о субтитрах: English, English (SDH)
MediaInfo
Общее
Уникальный идентификатор : 193996275062679739744075367074193595536 (0x91F252D27CB9130CBD34A7E57E91DC90)
Формат : Matroska
Версия формата : Version 4 / Version 2
Размер файла : 5,34 Гбайт
Продолжительность : 1 ч. 44 м.
Общий поток : 7343 Кбит/сек
Дата кодирования : UTC 2014-07-28 07:27:44
Программа кодирования : mkvmerge v6.9.1 ('Blue Panther') 64bit built on Apr 18 2014 18:23:38
Библиотека кодирования : libebml v1.3.0 + libmatroska v1.4.1
Видео
Идентификатор : 1
Формат : AVC
Формат/Информация : Advanced Video Codec
Профиль формата : High@L4.1
Параметр CABAC формата : Да
Параметр ReFrames формата : 12 кадров
Идентификатор кодека : V_MPEG4/ISO/AVC
Продолжительность : 1 ч. 44 м.
Битрейт : 6173 Кбит/сек
Ширина : 1280 пикселей
Высота : 534 пикселя
Соотношение сторон : 2,40:1
Режим частоты кадров : Постоянный
Частота кадров : 23,976 кадра/сек
Цветовое пространство : YUV
Субдискретизация насыщенности : 4:2:0
Битовая глубина : 8 бит
Тип развёртки : Прогрессивная
Бит/(Пиксели*Кадры) : 0.377
Размер потока : 4,49 Гбайт (84%)
Библиотека кодирования : x264 core 142 r2453kMod ea0ca51
Настройки программы : cabac=1 / ref=12 / deblock=1:-3:-3 / analyse=0x3:0x133 / me=tesa / subme=11 / psy=1 / fade_compensate=0.00 / psy_rd=1.00:0.00 / mixed_ref=1 / me_range=24 / chroma_me=1 / trellis=2 / 8x8dct=1 / cqm=0 / deadzone=21,11 / fast_pskip=0 / chroma_qp_offset=-2 / threads=6 / lookahead_threads=1 / sliced_threads=0 / nr=0 / decimate=1 / interlaced=0 / bluray_compat=0 / constrained_intra=0 / fgo=0 / bframes=12 / b_pyramid=2 / b_adapt=2 / b_bias=0 / direct=3 / weightb=1 / open_gop=0 / weightp=2 / keyint=250 / keyint_min=23 / scenecut=40 / intra_refresh=0 / rc_lookahead=60 / rc=crf / mbtree=0 / crf=15.5000 / qcomp=0.70 / qpmin=0 / qpmax=69 / qpstep=4 / vbv_maxrate=62500 / vbv_bufsize=78125 / crf_max=0.0 / nal_hrd=none / filler=0 / ip_ratio=1.30 / pb_ratio=1.20 / aq=1:0.80
Язык : English
Default : Да
Forced : Нет
Коэффициенты матрицы : BT.709
Аудио #1
Идентификатор : 2
Формат : AC-3
Формат/Информация : Audio Coding 3
Расширение режима : CM (complete main)
Параметр Endianness формата : Big
Идентификатор кодека : A_AC3
Продолжительность : 1 ч. 44 м.
Вид битрейта : Постоянный
Битрейт : 384 Кбит/сек
Каналы : 6 каналов
Расположение каналов : Front: L C R, Side: L R, LFE
Частота : 48,0 КГц
Битовая глубина : 16 бит
Метод сжатия : С потерями
Размер потока : 286 Мбайт (5%)
Заголовок : Дубляж, iTunes Russia
Язык : Russian
Default : Да
Forced : Нет
Аудио #2
Идентификатор : 3
Формат : AC-3
Формат/Информация : Audio Coding 3
Расширение режима : CM (complete main)
Параметр Endianness формата : Big
Идентификатор кодека : A_AC3
Продолжительность : 1 ч. 44 м.
Вид битрейта : Постоянный
Битрейт : 640 Кбит/сек
Каналы : 6 каналов
Расположение каналов : Front: L C R, Side: L R, LFE
Частота : 48,0 КГц
Битовая глубина : 16 бит
Метод сжатия : С потерями
Размер потока : 476 Мбайт (9%)
Язык : English
Default : Нет
Forced : Нет
Текст #1
Идентификатор : 4
Формат : UTF-8
Идентификатор кодека : S_TEXT/UTF8
Идентификатор кодека/Информация : UTF-8 Plain Text
Язык : English
Default : Нет
Forced : Нет
Текст #2
Идентификатор : 5
Формат : UTF-8
Идентификатор кодека : S_TEXT/UTF8
Идентификатор кодека/Информация : UTF-8 Plain Text
Заголовок : SDH
Язык : English
Default : Нет
Forced : Нет
Меню
00:00:00.000 : en:00:00:00.000
00:03:10.690 : en:00:03:10.690
00:07:26.571 : en:00:07:26.571
00:12:32.752 : en:00:12:32.752
00:14:41.881 : en:00:14:41.881
00:19:54.318 : en:00:19:54.318
00:24:35.057 : en:00:24:35.057
00:30:56.396 : en:00:30:56.396
00:34:01.414 : en:00:34:01.414
00:39:20.149 : en:00:39:20.149
00:42:50.109 : en:00:42:50.109
00:46:09.934 : en:00:46:09.934
00:51:21.412 : en:00:51:21.412
00:54:53.582 : en:00:54:53.582
00:57:14.389 : en:00:57:14.389
01:01:54.252 : en:01:01:54.252
01:08:05.540 : en:01:08:05.540
01:11:46.594 : en:01:11:46.594
01:14:19.497 : en:01:14:19.497
01:19:14.750 : en:01:19:14.750
01:23:16.700 : en:01:23:16.700
01:28:45.237 : en:01:28:45.237
01:34:24.617 : en:01:34:24.617
01:37:17.999 : en:01:37:17.999
Скриншот c названием фильма Скриншоты
Скачать

Скачать торрент!

Как скачивать? · Что такое торрент? · Рейтинг и ограничения

Сайт не распространяет и не хранит электронные версии произведений, а лишь предоставляет доступ к создаваемому пользователями каталогу ссылок на торрент-файлы, которые содержат только списки хеш-сумм

[Профиль] [ЛС]
Показать сообщения:    
Ответить на тему

Текущее время: Сегодня 20:36

Часовой пояс: GMT + 4



Вы не можете начинать темы
Вы не можете отвечать на сообщения
Вы не можете редактировать свои сообщения
Вы не можете удалять свои сообщения
Вы не можете голосовать в опросах
Вы не можете прикреплять файлы к сообщениям
Вы не можете скачивать файлы