Кровавая месть / In the Blood (Джон Стокуэлл / John Stockwell) [2014, Великобритания, Пуэрто Рико, триллер, боевик, криминал, BDRip 720p] Dub + AVO (Дольский) + Sub Rus, Eng + Original Eng

Ответить на тему
 
Автор Сообщение

user ®

Стаж: 7 лет 7 месяцев

Сообщений: 20008

Пост Пост: #1 от 20-Авг-2014 04:10

[Цитировать]

Кровавая месть / In the Blood Страна: Великобритания, Пуэрто Рико
Студия: Anchor Bay Films, 20th Century Fox Home Entertainment, Movie Package Company
Жанр: триллер, боевик, криминал
Год выпуска: 2014
Продолжительность: 01:47:40
Перевод: 1: Профессиональный (дублированный) Лицензия R5
Перевод: 2: Авторский (одноголосый закадровый)А.Дольский
Cубтитры: русские(forced,full),английские(full,SDH)
Оригинальная аудиодорожка: английский
Режиссер: Джон Стокуэлл / John Stockwell
В ролях: Джина Карано, Кэм Жиганде, Исмаэль Круз, Луис Гусман, Дэнни Трехо, Трит Уильямс, Амори Ноласко, Стивен Лэнг, Ивет Йэтс, Элоиза Мамфорд
Описание: Сильная и красивая Ава мечтала провести с мужем счастливый отпуск на райских Карибских островах на берегу океана… В одно мгновение все превратилось в ад. После загадочного исчезновения мужа Ава начинает расследование. Во что бы то ни стало, она найдет людей, которые похитили и убили ее возлюбленного. Гнев женщины в горе не знает предела…

Тип релиза: BDRip 720p[LolHD]
Контейнер: MKV
Видео: AVC, 1280x690, 8504 kbps, 23.976 fps
Аудио 1: Russian: 48 kHz, AC3, 3/2 (L,C,R,l,r) + LFE ch, ~384.00 kbps avg |R5|
Аудио 2: Russian: 48 kHz, AC3, 3/2 (L,C,R,l,r) + LFE ch, ~640.00 kbps |Дольский|
Аудио 2: English: 48 kHz, AC3, 3/2 (L,C,R,l,r) + LFE ch, ~640.00 kbps |Original|
Чаптеры:есть

Доп.информация
За перевод Дольского спасибо форуму е180
Звук:Rammzez
x264 log
x264 [info]: frame I:1128 Avg QP:13.30 size:138790
x264 [info]: frame P:38597 Avg QP:14.58 size: 76617
x264 [info]: frame B:115171 Avg QP:15.84 size: 34650
x264 [info]: consecutive B-frames: 3.5% 4.7% 8.6% 36.8% 14.4% 20.8% 4.9% 4.4% 0.7% 0.3% 0.2% 0.5% 0.3%
x264 [info]: SSIM Mean Y:0.9881572 (19.265db), x264 [info]: kb/s:8797.40, encoded 154896 frames, 6.29 fps, 8797.40 kb/s, duration 6:50:35.06
MediaInfo
General
Unique ID : 228781218142912337172475009957678713289 (0xAC1DA8ED77F2135DB34046CB780689C9)
Complete name : D:In.The.Blood.2014.720p.BluRay.DD5.1.x264-Talian-.mkv
Format : Matroska
Format version : Version 2
File size : 7.87 GiB
Duration : 1h 47mn
Overall bit rate : 10.5 Mbps
Movie name : -Talian-
Encoded date : UTC 2014-08-16 19:44:31
Writing application : mkvmerge v5.7.0 ('The Whirlwind') built on Jul 8 2012 20:08:51
Writing library : libebml v1.2.3 + libmatroska v1.3.0
Video
ID : 1
Format : AVC
Format/Info : Advanced Video Codec
Format profile : High@L4.1
Format settings, CABAC : Yes
Format settings, ReFrames : 9 frames
Codec ID : V_MPEG4/ISO/AVC
Duration : 1h 47mn
Bit rate : 8 592 Kbps
Width : 1 280 pixels
Height : 690 pixels
Display aspect ratio : 1.855
Frame rate : 23.976 fps
Color space : YUV
Chroma subsampling : 4:2:0
Bit depth : 8 bits
Scan type : Progressive
Bits/(Pixel*Frame) : 0.406
Stream size : 6.46 GiB (82%)
Title : LolHD
Writing library : x264 core 142 r2431kMod ac76440
Encoding settings : cabac=1 / ref=9 / deblock=1:-3:-3 / analyse=0x3:0x133 / me=umh / subme=10 / psy=1 / fade_compensate=0.00 / psy_rd=0.96:0.00 / mixed_ref=1 / me_range=24 / chroma_me=1 / trellis=2 / 8x8dct=1 / cqm=0 / deadzone=21,11 / fast_pskip=0 / chroma_qp_offset=-2 / threads=6 / lookahead_threads=1 / sliced_threads=0 / nr=0 / decimate=0 / interlaced=0 / bluray_compat=0 / constrained_intra=0 / fgo=0 / bframes=12 / b_pyramid=2 / b_adapt=2 / b_bias=0 / direct=3 / weightb=1 / open_gop=0 / weightp=2 / keyint=250 / keyint_min=23 / scenecut=40 / intra_refresh=0 / rc=crf / mbtree=0 / crf=16.4000 / qcomp=0.75 / qpmin=0 / qpmax=69 / qpstep=4 / ip_ratio=1.30 / pb_ratio=1.20 / aq=1:1.00
Language : English
Default : Yes
Forced : No
Audio #1
ID : 2
Format : AC-3
Format/Info : Audio Coding 3
Mode extension : CM (complete main)
Format settings, Endianness : Big
Codec ID : A_AC3
Duration : 1h 47mn
Bit rate mode : Constant
Bit rate : 384 Kbps
Channel(s) : 6 channels
Channel positions : Front: L C R, Side: L R, LFE
Sampling rate : 48.0 KHz
Bit depth : 16 bits
Compression mode : Lossy
Stream size : 296 MiB (4%)
Title : DUB-R5
Language : Russian
Default : Yes
Forced : No
Audio #2
ID : 3
Format : AC-3
Format/Info : Audio Coding 3
Mode extension : CM (complete main)
Format settings, Endianness : Big
Codec ID : A_AC3
Duration : 1h 47mn
Bit rate mode : Constant
Bit rate : 640 Kbps
Channel(s) : 6 channels
Channel positions : Front: L C R, Side: L R, LFE
Sampling rate : 48.0 KHz
Bit depth : 16 bits
Compression mode : Lossy
Stream size : 493 MiB (6%)
Title : AVO-Дольский
Language : Russian
Default : No
Forced : No
Audio #3
ID : 4
Format : AC-3
Format/Info : Audio Coding 3
Mode extension : CM (complete main)
Format settings, Endianness : Big
Codec ID : A_AC3
Duration : 1h 47mn
Bit rate mode : Constant
Bit rate : 640 Kbps
Channel(s) : 6 channels
Channel positions : Front: L C R, Side: L R, LFE
Sampling rate : 48.0 KHz
Bit depth : 16 bits
Compression mode : Lossy
Stream size : 493 MiB (6%)
Title : Original
Language : English
Default : No
Forced : No
Text #1
ID : 5
Format : UTF-8
Codec ID : S_TEXT/UTF8
Codec ID/Info : UTF-8 Plain Text
Title : Sub-forced
Language : Russian
Default : Yes
Forced : No
Text #2
ID : 6
Format : UTF-8
Codec ID : S_TEXT/UTF8
Codec ID/Info : UTF-8 Plain Text
Title : Sub-full
Language : Russian
Default : No
Forced : No
Text #3
ID : 7
Format : UTF-8
Codec ID : S_TEXT/UTF8
Codec ID/Info : UTF-8 Plain Text
Title : Sub-Full
Language : English
Default : No
Forced : No
Text #4
ID : 8
Format : UTF-8
Codec ID : S_TEXT/UTF8
Codec ID/Info : UTF-8 Plain Text
Title : Sub-SDH
Language : English
Default : No
Forced : No
Menu
00:00:00.000 : en:Chapter 01
00:02:21.475 : en:Chapter 02
00:11:18.261 : en:Chapter 03
00:17:09.487 : en:Chapter 04
00:25:20.185 : en:Chapter 05
00:32:15.433 : en:Chapter 06
00:43:14.091 : en:Chapter 07
00:49:48.235 : en:Chapter 08
00:58:00.102 : en:Chapter 09
01:13:12.638 : en:Chapter 10
01:29:49.676 : en:Chapter 11
01:42:11.375 : en:Chapter 12
Скриншоты
Source..........|.....Encode.....|..........CHD




Скачать

Скачать торрент!

Как скачивать? · Что такое торрент? · Рейтинг и ограничения

Сайт не распространяет и не хранит электронные версии произведений, а лишь предоставляет доступ к создаваемому пользователями каталогу ссылок на торрент-файлы, которые содержат только списки хеш-сумм

[Профиль] [ЛС]
Показать сообщения:    
Ответить на тему

Текущее время: Сегодня 12:54

Часовой пояс: GMT + 4



Вы не можете начинать темы
Вы не можете отвечать на сообщения
Вы не можете редактировать свои сообщения
Вы не можете удалять свои сообщения
Вы не можете голосовать в опросах
Вы не можете прикреплять файлы к сообщениям
Вы не можете скачивать файлы