Фронтера / Граница / Frontera (Майкл Берри / Michael Berry) [2014, США, драма, WEB-DL 720p] 2х VO + Original (Eng) + Sub (eng)

Ответить на тему
 
Автор Сообщение

user ®

Стаж: 7 лет 7 месяцев

Сообщений: 20008

Пост Пост: #1 от 20-Авг-2014 04:10

[Цитировать]

Фронтера
Frontera
Страна: США
Год выпуска: 2014
Жанр: драма
Продолжительность: 01:42:56
Перевод:
Одноголосый закадровый - datynet по переводу Janetta
Одноголосый закадровый - Виктор Береговых по переводу Михаила Васильева
Оригинальная аудиодорожка: английская
русские субтитры: нет-Режиссёр: Майкл Берри: Michael Berry
В главных ролях: Эд Харрис, Майкл Пенья, Ева Лонгория, Эми Мэдиган, Даниэль Сакапа, Кристен Рейкс, Мэттью Пейдж, Сет Эдкинс, Лора Каннингэм, Алекс Найт-Описание: Убита жена бывшего шерифа Аризоны. Все указывает на причастность к убийству мексиканца, нелегально въехавшего на территорию США. Муж убитой решает объединиться с действующим шерифом, чтобы докопаться до истины…- -Доп. информация: Не отключаемые английские субтитры на испанскую речь!-Качество: WEB-DL 720p
Формат: MKV
Видео кодек: AVC
Аудио кодек: АС3
Видео: 1280x530, 23.976 fps, ~4 082 kbps avg, 0.251 bit/pixel
Аудио #1: [RUS] 48 kHz, AC3 Dolby Digital, 3/2 (L,C,R,l,r) + LFE ch, ~384 kbps - datynet
Аудио #2: [RUS] 48 kHz, AC3 Dolby Digital, 2/0 (L,R) ch, ~192 kbps - Виктор Береговых
Аудио #3: [ENG] 48 kHz, AC3 Dolby Digital, 3/2 (L,C,R,l,r) + LFE ch, ~384 kbps
субтитры: английские
навигация по главам: 16 глав
скриншоты MediaInfo
Общее
Уникальный идентификатор : 181681638484237372113729935064066276375 (0x88AE9C5CBF5532278E4425C15B69BC17)
Полное имя : D:\Im\Frontera\Frontera.2014.WEB-DL 720p.mkv
Формат : Matroska
Версия формата : Version 4 / Version 2
Размер файла : 3,70 Гбайт
Продолжительность : 1 ч. 42 м.
Общий поток : 5145 Кбит/сек
Дата кодирования : UTC 2014-08-17 10:50:01
Программа кодирования : mkvmerge v7.1.0 ('Good Love') 32bit built on Jul 27 2014 12:59:18
Библиотека кодирования : libebml v1.3.0 + libmatroska v1.4.1
DURATION : 01:42:56.608000000
NUMBER_OF_FRAMES : 193019
NUMBER_OF_BYTES : 148238592
_STATISTICS_WRITING_APP : mkvmerge v7.1.0 ('Good Love') 32bit built on Jul 27 2014 12:59:18
_STATISTICS_WRITING_DATE_UTC : 2014-08-17 10:50:01
_STATISTICS_TAGS : BPS DURATION NUMBER_OF_FRAMES NUMBER_OF_BYTES
Видео
Идентификатор : 1
Формат : AVC
Формат/Информация : Advanced Video Codec
Профиль формата : Main@L3.1
Параметр CABAC формата : Нет
Параметр ReFrames формата : 2 кадра
Идентификатор кодека : V_MPEG4/ISO/AVC
Продолжительность : 1 ч. 42 м.
Битрейт : 4082 Кбит/сек
Ширина : 1280 пикселей
Высота : 530 пикселей
Соотношение сторон : 2,40:1
Режим частоты кадров : Постоянный
Частота кадров : 23,976 кадра/сек
Цветовое пространство : YUV
Субдискретизация насыщенности : 4:2:0
Битовая глубина : 8 бит
Тип развёртки : Прогрессивная
Бит/(Пиксели*Кадры) : 0.251
Размер потока : 2,94 Гбайт (79%)
Язык : English
Default : Да
Forced : Нет
Основные цвета : BT.709
Характеристики трансфера : BT.709
Коэффициенты матрицы : BT.709
Аудио #1
Идентификатор : 2
Формат : AC-3
Формат/Информация : Audio Coding 3
Расширение режима : CM (complete main)
Параметр Endianness формата : Big
Идентификатор кодека : A_AC3
Продолжительность : 1 ч. 42 м.
Вид битрейта : Постоянный
Битрейт : 384 Кбит/сек
Каналы : 6 каналов
Расположение каналов : Front: L C R, Side: L R, LFE
Частота : 48,0 КГц
Битовая глубина : 16 бит
Метод сжатия : С потерями
Размер потока : 283 Мбайт (7%)
Заголовок : VO - datynet
Язык : Russian
Default : Да
Forced : Нет
Аудио #2
Идентификатор : 3
Формат : AC-3
Формат/Информация : Audio Coding 3
Расширение режима : CM (complete main)
Параметр Endianness формата : Big
Идентификатор кодека : A_AC3
Продолжительность : 1 ч. 42 м.
Вид битрейта : Постоянный
Битрейт : 192 Кбит/сек
Каналы : 2 канала
Расположение каналов : Front: L R
Частота : 48,0 КГц
Битовая глубина : 16 бит
Метод сжатия : С потерями
Размер потока : 141 Мбайт (4%)
Заголовок : VO - Виктор Береговых
Язык : Russian
Default : Нет
Forced : Нет
Аудио #3
Идентификатор : 4
Формат : AC-3
Формат/Информация : Audio Coding 3
Расширение режима : CM (complete main)
Параметр Endianness формата : Big
Идентификатор кодека : A_AC3
Продолжительность : 1 ч. 42 м.
Вид битрейта : Постоянный
Битрейт : 384 Кбит/сек
Каналы : 6 каналов
Расположение каналов : Front: L C R, Side: L R, LFE
Частота : 48,0 КГц
Битовая глубина : 16 бит
Метод сжатия : С потерями
Размер потока : 283 Мбайт (7%)
Заголовок : ENG
Язык : English
Default : Нет
Forced : Нет
Текст
Идентификатор : 5
Формат : UTF-8
Идентификатор кодека : S_TEXT/UTF8
Идентификатор кодека/Информация : UTF-8 Plain Text
Заголовок : Eng Sub
Язык : English
Default : Нет
Forced : Нет
Меню
00:00:00.000 : en:1
00:08:10.000 : en:2
00:13:41.000 : en:3
00:21:09.000 : en:4
00:24:03.000 : en:5
00:30:47.000 : en:6
00:37:42.000 : en:7
00:42:34.000 : en:8
00:48:19.000 : en:9
00:54:27.000 : en:10
01:00:29.000 : en:11
01:06:33.000 : en:12
01:13:55.000 : en:13
01:21:02.000 : en:14
01:27:09.000 : en:15
01:32:24.000 : en:16
Скачать

Скачать торрент!

Как скачивать? · Что такое торрент? · Рейтинг и ограничения

Сайт не распространяет и не хранит электронные версии произведений, а лишь предоставляет доступ к создаваемому пользователями каталогу ссылок на торрент-файлы, которые содержат только списки хеш-сумм

[Профиль] [ЛС]
Показать сообщения:    
Ответить на тему

Текущее время: Сегодня 05:04

Часовой пояс: GMT + 4



Вы не можете начинать темы
Вы не можете отвечать на сообщения
Вы не можете редактировать свои сообщения
Вы не можете удалять свои сообщения
Вы не можете голосовать в опросах
Вы не можете прикреплять файлы к сообщениям
Вы не можете скачивать файлы