Огнём и мечом / Ogniem i mieczem (Ежи Гоффман / Jerzy Hoffman) [1999, Польша, исторический, драма, HDTV 1080i] [Телевизионная версия] DVO (CP-Digital) + UKR + Original Pol + Sub Rus

Ответить на тему
 
Автор Сообщение

user ®

Стаж: 7 лет 7 месяцев

Сообщений: 20008

Пост Пост: #1 от 20-Авг-2014 04:10

[Цитировать]

Огнём и мечом / Ogniem i mieczem
[Телевизионная версия | 4 серии]
-Страна: Польша
Студия: Zodiak Jerzy Hoffman Film Production
Жанр: исторический, драма
Продолжительность: 00:49:54 + 00:49:46 + 00:51:54 + 00:51:30
Год выпуска: 1999
Перевод: Профессиональный (двухголосый закадровый) - CP-Digital
Субтитры: русские
Оригинальная аудио дорожка: польский-Режиссёр: Ежи Гоффман / Jerzy Hoffman
В ролях: Изабелла Скорупко, Михал Жебровский, Александр Домогаров, Кшиштоф Ковалевский, Богдан Ступка, Анджей Северин, Збигнев Замаховский, Виктор Зборовский, Войцех Маляйкат, Эва Висьневска, Руслана Писанка, Даниэль Ольбрыхский, Марек Кондрат, Густав Голоубек, Анджей Копичинский, Мацей Козловский, Адам Ференси, Густав Люткевич, Дмитрий Миргородский и др.- | Релиз: -Описание: Экранизация одноименного романа Генрика Сенкевича.
XVII век. Речь Посполита объята огнем, спровоцированным ссорой казацкого гетмана Богдана Хмельницкого с паном Чаплинским, который запорол насмерть сына гетмана. Оскорбленный Хмельницкий поднял Запорожскую Сечь, призвал крымских татар под предводительством Тугай-бея, разбил войска короля Владислава.
На фоне диких грабежей, погромов, грандиозных батальных сцен благородный шляхтич Скшетуский и жестокий казацкий атаман Богун добиваются любви польской красавицы…-Доп. информация:
- Данная раздача представляет собой запись трансляции канала TVP-HD. 1 и 2 серии записаны в ноябре 2012 г., 3 и 4 серии - в апреле 2014 г.
- За исходные украинские дорожки (запись с канала "Сіті") спасибо DareDevil96.
- Запись спутниковой HDTV трансляции, работа со звуком, субтитрами - [url=http://***/forum/profile.php?mode=viewprofile&u=1793838]xfiles[/url].
-Семпл: скачать-Качество: HDTV 1080i
Формат: MKV
Видео (1-2 серии): 1920x1080i (16:9), 25.000 fps, AVC, ~6137-6481 kbps
Видео (3-4 серии): 1920x1080i (16:9), 25.000 fps, AVC, ~9231-9487 kbps
Аудио 1: Русский | 48.0 KHz, AC3, 6 ch, 448 kbps | CP-Digital
Аудио 2: Украинский | 48.0 KHz, AC3, 2 ch, 192 kbps | Компанія "Кіт"
Аудио 3: Польский | 48.0 KHz, AC3, 6 ch, 448 kbps
Субтитры: русские
MediaInfo
GeneralUnique ID : 238135933048441815590393978045864513872 (0xB3274FFB5D28E35583300694A1E69150)Complete name : Ogniem.i.mieczem.Part1.1999.HDTV.1080i.rutracker-xfiles.mkvFormat : MatroskaFormat version : Version 4 / Version 2File size : 2.57 GiBDuration : 49mn 54sOverall bit rate : 7 371 KbpsMovie name : Ogniem.i.mieczem.Part1.1999.HDTV.1080i.rutracker-xfilesEncoded date : UTC 2014-08-17 15:59:45Writing application : mkvmerge v7.1.0 ('Good Love') 64bit built on Jul 27 2014 13:06:55Writing library : libebml v1.3.0 + libmatroska v1.4.1DURATION : 00:47:18.799000000NUMBER_OF_FRAMES : 522NUMBER_OF_BYTES : 32318_STATISTICS_WRITING_APP : mkvmerge v7.1.0 ('Good Love') 64bit built on Jul 27 2014 13:06:55_STATISTICS_WRITING_DATE_UTC : 2014-08-17 15:59:45_STATISTICS_TAGS : BPS DURATION NUMBER_OF_FRAMES NUMBER_OF_BYTES
VideoID : 1Format : AVCFormat/Info : Advanced Video CodecFormat profile : Main@L4.0Format settings, CABAC : YesFormat settings, ReFrames : 4 framesCodec ID : V_MPEG4/ISO/AVCDuration : 49mn 54sBit rate : 6 137 KbpsWidth : 1 920 pixelsHeight : 1 080 pixelsDisplay aspect ratio : 16:9Frame rate mode : ConstantFrame rate : 25.000 fpsColor space : YUVChroma subsampling : 4:2:0Bit depth : 8 bitsScan type : InterlacedScan order : Top Field FirstBits/(Pixel*Frame) : 0.118Stream size : 2.14 GiB (83%)Title : [url=http://***/forum/viewtopic.php?t=4804448]http://***/forum/viewtopic.php?t=4804448[/url]Language : PolishDefault : YesForced : NoColor primaries : BT.709Transfer characteristics : BT.709Matrix coefficients : BT.709
Audio #1ID : 2Format : AC-3Format/Info : Audio Coding 3Mode extension : CM (complete main)Format settings, Endianness : BigCodec ID : A_AC3Duration : 49mn 54sBit rate mode : ConstantBit rate : 448 KbpsChannel(s) : 6 channelsChannel positions : Front: L C R, Side: L R, LFESampling rate : 48.0 KHzBit depth : 16 bitsCompression mode : LossyStream size : 160 MiB (6%)Title : CP-DigitalLanguage : RussianDefault : YesForced : No
Audio #2ID : 3Format : AC-3Format/Info : Audio Coding 3Mode extension : CM (complete main)Format settings, Endianness : BigCodec ID : A_AC3Duration : 49mn 54sBit rate mode : ConstantBit rate : 192 KbpsChannel(s) : 2 channelsChannel positions : Front: L RSampling rate : 48.0 KHzBit depth : 16 bitsCompression mode : LossyStream size : 68.5 MiB (3%)Title : Компанія "Кіт"Language : UkrainianDefault : NoForced : No
Audio #3ID : 4Format : AC-3Format/Info : Audio Coding 3Mode extension : CM (complete main)Format settings, Endianness : BigCodec ID : A_AC3Duration : 49mn 54sBit rate mode : ConstantBit rate : 448 KbpsChannel(s) : 6 channelsChannel positions : Front: L C R, Side: L R, LFESampling rate : 48.0 KHzBit depth : 16 bitsCompression mode : LossyStream size : 160 MiB (6%)Language : PolishDefault : NoForced : No
TextID : 5Format : UTF-8Codec ID : S_TEXT/UTF8Codec ID/Info : UTF-8 Plain TextLanguage : RussianDefault : NoForced : No-GeneralUnique ID : 213357048423464825851454733333845677904 (0xA08312A5AC839F4981131FF3DA729750)Complete name : Ogniem.i.mieczem.Part2.1999.HDTV.1080i.rutracker-xfiles.mkvFormat : MatroskaFormat version : Version 4 / Version 2File size : 2.69 GiBDuration : 49mn 46sOverall bit rate : 7 723 KbpsMovie name : Ogniem.i.mieczem.Part2.1999.HDTV.1080i.rutracker-xfilesEncoded date : UTC 2014-08-17 16:13:35Writing application : mkvmerge v7.1.0 ('Good Love') 64bit built on Jul 27 2014 13:06:55Writing library : libebml v1.3.0 + libmatroska v1.4.1DURATION : 00:46:50.118000000NUMBER_OF_FRAMES : 376NUMBER_OF_BYTES : 19379_STATISTICS_WRITING_APP : mkvmerge v7.1.0 ('Good Love') 64bit built on Jul 27 2014 13:06:55_STATISTICS_WRITING_DATE_UTC : 2014-08-17 16:13:35_STATISTICS_TAGS : BPS DURATION NUMBER_OF_FRAMES NUMBER_OF_BYTES
VideoID : 1Format : AVCFormat/Info : Advanced Video CodecFormat profile : Main@L4.0Format settings, CABAC : YesFormat settings, ReFrames : 4 framesFormat settings, GOP : M=4, N=24Codec ID : V_MPEG4/ISO/AVCDuration : 49mn 46sBit rate : 6 481 KbpsWidth : 1 920 pixelsHeight : 1 080 pixelsDisplay aspect ratio : 16:9Frame rate mode : ConstantFrame rate : 25.000 fpsColor space : YUVChroma subsampling : 4:2:0Bit depth : 8 bitsScan type : InterlacedScan order : Top Field FirstBits/(Pixel*Frame) : 0.125Stream size : 2.25 GiB (84%)Title : [url=http://***/forum/viewtopic.php?t=4804448]http://***/forum/viewtopic.php?t=4804448[/url]Language : PolishDefault : YesForced : NoColor primaries : BT.709Transfer characteristics : BT.709Matrix coefficients : BT.709
Audio #1ID : 2Format : AC-3Format/Info : Audio Coding 3Mode extension : CM (complete main)Format settings, Endianness : BigCodec ID : A_AC3Duration : 49mn 46sBit rate mode : ConstantBit rate : 448 KbpsChannel(s) : 6 channelsChannel positions : Front: L C R, Side: L R, LFESampling rate : 48.0 KHzBit depth : 16 bitsCompression mode : LossyStream size : 160 MiB (6%)Title : CP-DigitalLanguage : RussianDefault : YesForced : No
Audio #2ID : 3Format : AC-3Format/Info : Audio Coding 3Mode extension : CM (complete main)Format settings, Endianness : BigCodec ID : A_AC3Duration : 49mn 46sBit rate mode : ConstantBit rate : 192 KbpsChannel(s) : 2 channelsChannel positions : Front: L RSampling rate : 48.0 KHzBit depth : 16 bitsCompression mode : LossyStream size : 68.4 MiB (2%)Title : Компанія "Кіт"Language : UkrainianDefault : NoForced : No
Audio #3ID : 4Format : AC-3Format/Info : Audio Coding 3Mode extension : CM (complete main)Format settings, Endianness : BigCodec ID : A_AC3Duration : 49mn 46sBit rate mode : ConstantBit rate : 448 KbpsChannel(s) : 6 channelsChannel positions : Front: L C R, Side: L R, LFESampling rate : 48.0 KHzBit depth : 16 bitsCompression mode : LossyStream size : 160 MiB (6%)Language : PolishDefault : NoForced : No
TextID : 5Format : UTF-8Codec ID : S_TEXT/UTF8Codec ID/Info : UTF-8 Plain TextLanguage : RussianDefault : NoForced : No-GeneralUnique ID : 209797913491945836820274879640548345797 (0x9DD59BBF3636DDDDA3377BD35AAF07C5)Complete name : Ogniem.i.mieczem.Part3.1999.HDTV.1080i.rutracker-xfiles.mkvFormat : MatroskaFormat version : Version 4 / Version 2File size : 3.91 GiBDuration : 51mn 54sOverall bit rate : 10.8 MbpsMovie name : Ogniem.i.mieczem.Part3.1999.HDTV.1080i.rutracker-xfilesEncoded date : UTC 2014-08-17 16:28:55Writing application : mkvmerge v7.1.0 ('Good Love') 64bit built on Jul 27 2014 13:06:55Writing library : libebml v1.3.0 + libmatroska v1.4.1DURATION : 00:49:18.912000000NUMBER_OF_FRAMES : 540NUMBER_OF_BYTES : 31328_STATISTICS_WRITING_APP : mkvmerge v7.1.0 ('Good Love') 64bit built on Jul 27 2014 13:06:55_STATISTICS_WRITING_DATE_UTC : 2014-08-17 16:28:55_STATISTICS_TAGS : BPS DURATION NUMBER_OF_FRAMES NUMBER_OF_BYTES
VideoID : 1Format : AVCFormat/Info : Advanced Video CodecFormat profile : High@L4.0Format settings, CABAC : YesFormat settings, ReFrames : 4 framesFormat settings, GOP : M=4, N=32Codec ID : V_MPEG4/ISO/AVCDuration : 51mn 54sBit rate : 9 487 KbpsWidth : 1 920 pixelsHeight : 1 080 pixelsDisplay aspect ratio : 16:9Frame rate mode : ConstantFrame rate : 25.000 fpsColor space : YUVChroma subsampling : 4:2:0Bit depth : 8 bitsScan type : InterlacedScan order : Top Field FirstBits/(Pixel*Frame) : 0.183Stream size : 3.44 GiB (88%)Title : [url=http://***/forum/viewtopic.php?t=4804448]http://***/forum/viewtopic.php?t=4804448[/url]Language : PolishDefault : YesForced : NoColor primaries : BT.709Transfer characteristics : BT.709Matrix coefficients : BT.709
Audio #1ID : 2Format : AC-3Format/Info : Audio Coding 3Mode extension : CM (complete main)Format settings, Endianness : BigCodec ID : A_AC3Duration : 51mn 54sBit rate mode : ConstantBit rate : 448 KbpsChannel(s) : 6 channelsChannel positions : Front: L C R, Side: L R, LFESampling rate : 48.0 KHzBit depth : 16 bitsCompression mode : LossyDelay relative to video : -40msStream size : 166 MiB (4%)Title : CP-DigitalLanguage : RussianDefault : YesForced : No
Audio #2ID : 3Format : AC-3Format/Info : Audio Coding 3Mode extension : CM (complete main)Format settings, Endianness : BigCodec ID : A_AC3Duration : 51mn 54sBit rate mode : ConstantBit rate : 192 KbpsChannel(s) : 2 channelsChannel positions : Front: L RSampling rate : 48.0 KHzBit depth : 16 bitsCompression mode : LossyDelay relative to video : -40msStream size : 71.3 MiB (2%)Title : Компанія "Кіт"Language : UkrainianDefault : NoForced : No
Audio #3ID : 4Format : AC-3Format/Info : Audio Coding 3Mode extension : CM (complete main)Format settings, Endianness : BigCodec ID : A_AC3Duration : 51mn 54sBit rate mode : ConstantBit rate : 448 KbpsChannel(s) : 6 channelsChannel positions : Front: L C R, Side: L R, LFESampling rate : 48.0 KHzBit depth : 16 bitsCompression mode : LossyDelay relative to video : -40msStream size : 166 MiB (4%)Language : PolishDefault : NoForced : No
TextID : 5Format : UTF-8Codec ID : S_TEXT/UTF8Codec ID/Info : UTF-8 Plain TextLanguage : RussianDefault : NoForced : No-GeneralUnique ID : 227450885656199682772245096279126867741 (0xAB1D7278D547E8DD9E8B1F0A33F07F1D)Complete name : Ogniem.i.mieczem.Part4.1999.HDTV.1080i.rutracker-xfiles.mkvFormat : MatroskaFormat version : Version 4 / Version 2File size : 3.79 GiBDuration : 51mn 30sOverall bit rate : 10.5 MbpsMovie name : Ogniem.i.mieczem.Part4.1999.HDTV.1080i.rutracker-xfilesEncoded date : UTC 2014-08-17 16:43:12Writing application : mkvmerge v7.1.0 ('Good Love') 64bit built on Jul 27 2014 13:06:55Writing library : libebml v1.3.0 + libmatroska v1.4.1DURATION : 00:48:50.675000000NUMBER_OF_FRAMES : 365NUMBER_OF_BYTES : 21384_STATISTICS_WRITING_APP : mkvmerge v7.1.0 ('Good Love') 64bit built on Jul 27 2014 13:06:55_STATISTICS_WRITING_DATE_UTC : 2014-08-17 16:43:12_STATISTICS_TAGS : BPS DURATION NUMBER_OF_FRAMES NUMBER_OF_BYTES
VideoID : 1Format : AVCFormat/Info : Advanced Video CodecFormat profile : High@L4.0Format settings, CABAC : YesFormat settings, ReFrames : 4 framesCodec ID : V_MPEG4/ISO/AVCDuration : 51mn 30sBit rate : 9 231 KbpsWidth : 1 920 pixelsHeight : 1 080 pixelsDisplay aspect ratio : 16:9Frame rate mode : ConstantFrame rate : 25.000 fpsColor space : YUVChroma subsampling : 4:2:0Bit depth : 8 bitsScan type : InterlacedScan order : Top Field FirstBits/(Pixel*Frame) : 0.178Stream size : 3.32 GiB (88%)Title : [url=http://***/forum/viewtopic.php?t=4804448]http://***/forum/viewtopic.php?t=4804448[/url]Language : PolishDefault : YesForced : NoColor primaries : BT.709Transfer characteristics : BT.709Matrix coefficients : BT.709
Audio #1ID : 2Format : AC-3Format/Info : Audio Coding 3Mode extension : CM (complete main)Format settings, Endianness : BigCodec ID : A_AC3Duration : 51mn 30sBit rate mode : ConstantBit rate : 448 KbpsChannel(s) : 6 channelsChannel positions : Front: L C R, Side: L R, LFESampling rate : 48.0 KHzBit depth : 16 bitsCompression mode : LossyStream size : 165 MiB (4%)Title : CP-DigitalLanguage : RussianDefault : YesForced : No
Audio #2ID : 3Format : AC-3Format/Info : Audio Coding 3Mode extension : CM (complete main)Format settings, Endianness : BigCodec ID : A_AC3Duration : 51mn 30sBit rate mode : ConstantBit rate : 192 KbpsChannel(s) : 2 channelsChannel positions : Front: L RSampling rate : 48.0 KHzBit depth : 16 bitsCompression mode : LossyStream size : 70.7 MiB (2%)Title : Компанія "Кіт"Language : UkrainianDefault : NoForced : No
Audio #3ID : 4Format : AC-3Format/Info : Audio Coding 3Mode extension : CM (complete main)Format settings, Endianness : BigCodec ID : A_AC3Duration : 51mn 30sBit rate mode : ConstantBit rate : 448 KbpsChannel(s) : 6 channelsChannel positions : Front: L C R, Side: L R, LFESampling rate : 48.0 KHzBit depth : 16 bitsCompression mode : LossyStream size : 165 MiB (4%)Language : PolishDefault : NoForced : No
TextID : 5Format : UTF-8Codec ID : S_TEXT/UTF8Codec ID/Info : UTF-8 Plain TextLanguage : RussianDefault : NoForced : No
Скриншоты
Скачать

Скачать торрент!

Как скачивать? · Что такое торрент? · Рейтинг и ограничения

Сайт не распространяет и не хранит электронные версии произведений, а лишь предоставляет доступ к создаваемому пользователями каталогу ссылок на торрент-файлы, которые содержат только списки хеш-сумм

[Профиль] [ЛС]
Показать сообщения:    
Ответить на тему

Текущее время: Сегодня 04:12

Часовой пояс: GMT + 4



Вы не можете начинать темы
Вы не можете отвечать на сообщения
Вы не можете редактировать свои сообщения
Вы не можете удалять свои сообщения
Вы не можете голосовать в опросах
Вы не можете прикреплять файлы к сообщениям
Вы не можете скачивать файлы