Призвание / The Calling (Джейсон Стоун / Jason Stone) [2014, США, триллер, WEB-DL 720p] VO + Original (Eng) + Sub (eng)

Ответить на тему
 
Автор Сообщение

user ®

Стаж: 7 лет 7 месяцев

Сообщений: 20008

Пост Пост: #1 от 20-Авг-2014 04:10

[Цитировать]

Призвание
The Calling
Страна: США
Год выпуска: 2014
Жанр: триллер
Продолжительность: 01:48:04
Перевод: Одноголосый закадровый - Lord32x по переводу Janetta
Оригинальная аудиодорожка: английская
Субтитры: английские-Режиссёр: Джейсон Стоун: Jason Stone
В главных ролях: Сьюзен Сарандон, Джил Беллоуз, Эллен Бёрстин, Тофер Грейс, Дональд Сазерленд, Кристофер Хейердал, Кристин Бут, Аманда Бругел, Паулино Нюнс, Джейн Моффат-Описание: Опытный детектив Хейзел Микаллеф начинает расследование убийства пожилой респектабельной дамы и вскоре понимает, что это преступление — лишь одно из звеньев в цепи аналогичных злодеяний, совершенных жестоким серийным маньяком.- -Качество: WEB-DL 720p
Формат: MKV
Видео кодек: AVC
Аудио кодек: АС3
Видео: 1280x530, 23.976 fps, ~4 115 kbps avg, 0.253 bit/pixel
Аудио #1: [RUS] 48 kHz, AC3 Dolby Digital, 2/0 (L,R) ch, ~192 kbps
Аудио #2: [ENG] 48 kHz, AC3 Dolby Digital, 3/2 (L,C,R,l,r) + LFE ch, ~384 kbps
Формат субтитров:: softsub (SRT)
навигация по главам: 16 глав
скриншоты MediaInfo
Общее
Уникальный идентификатор : 200097166414765327922245970793870622178 (0x96894FFD4822B35283ACA5B34B4F7DE2)
Полное имя : D:\Im\The Calling\The Calling.2014.WEB-DL 720p.mkv
Формат : Matroska
Версия формата : Version 4 / Version 2
Размер файла : 3,61 Гбайт
Продолжительность : 1 ч. 48 м.
Общий поток : 4786 Кбит/сек
Дата кодирования : UTC 2014-08-18 08:15:45
Программа кодирования : mkvmerge v7.1.0 ('Good Love') 32bit built on Jul 27 2014 12:59:18
Библиотека кодирования : libebml v1.3.0 + libmatroska v1.4.1
_STATISTICS_WRITING_APP : mkvmerge v7.1.0 ('Good Love') 32bit built on Jul 27 2014 12:59:18
_STATISTICS_WRITING_DATE_UTC : 2014-08-18 08:15:45
_STATISTICS_TAGS : BPS DURATION NUMBER_OF_FRAMES NUMBER_OF_BYTES
DURATION : 01:47:25.738000000
NUMBER_OF_FRAMES : 1240
NUMBER_OF_BYTES : 54972
Видео
Идентификатор : 1
Формат : AVC
Формат/Информация : Advanced Video Codec
Профиль формата : Main@L3.1
Параметр CABAC формата : Нет
Параметр ReFrames формата : 2 кадра
Идентификатор кодека : V_MPEG4/ISO/AVC
Продолжительность : 1 ч. 48 м.
Битрейт : 4115 Кбит/сек
Ширина : 1280 пикселей
Высота : 530 пикселей
Соотношение сторон : 2,40:1
Режим частоты кадров : Постоянный
Частота кадров : 23,976 кадра/сек
Цветовое пространство : YUV
Субдискретизация насыщенности : 4:2:0
Битовая глубина : 8 бит
Тип развёртки : Прогрессивная
Бит/(Пиксели*Кадры) : 0.253
Размер потока : 3,11 Гбайт (86%)
Default : Да
Forced : Нет
Основные цвета : BT.709
Характеристики трансфера : BT.709
Коэффициенты матрицы : BT.709
Аудио #1
Идентификатор : 2
Формат : AC-3
Формат/Информация : Audio Coding 3
Расширение режима : CM (complete main)
Параметр Endianness формата : Big
Идентификатор кодека : A_AC3
Продолжительность : 1 ч. 48 м.
Вид битрейта : Постоянный
Битрейт : 192 Кбит/сек
Каналы : 2 канала
Расположение каналов : Front: L R
Частота : 48,0 КГц
Битовая глубина : 16 бит
Метод сжатия : С потерями
Размер потока : 148 Мбайт (4%)
Заголовок : VO - Lord32x
Язык : Russian
Default : Да
Forced : Нет
Аудио #2
Идентификатор : 3
Формат : AC-3
Формат/Информация : Audio Coding 3
Расширение режима : CM (complete main)
Параметр Endianness формата : Big
Идентификатор кодека : A_AC3
Продолжительность : 1 ч. 48 м.
Вид битрейта : Постоянный
Битрейт : 384 Кбит/сек
Каналы : 6 каналов
Расположение каналов : Front: L C R, Side: L R, LFE
Частота : 48,0 КГц
Битовая глубина : 16 бит
Метод сжатия : С потерями
Размер потока : 297 Мбайт (8%)
Заголовок : ENG
Язык : English
Default : Нет
Forced : Нет
Текст
Идентификатор : 4
Формат : UTF-8
Идентификатор кодека : S_TEXT/UTF8
Идентификатор кодека/Информация : UTF-8 Plain Text
Заголовок : Eng Sub
Язык : English
Default : Нет
Forced : Нет
Меню
00:00:00.000 : en:1
00:07:02.000 : en:2
00:13:47.000 : en:3
00:21:38.000 : en:4
00:28:15.000 : en:5
00:33:43.000 : en:6
00:38:54.000 : en:7
00:43:44.000 : en:8
00:51:38.000 : en:9
00:57:01.000 : en:10
01:01:17.000 : en:11
01:09:24.000 : en:12
01:16:15.000 : en:13
01:23:03.000 : en:14
01:29:44.000 : en:15
01:38:09.000 : en:16
Скачать

Скачать торрент!

Как скачивать? · Что такое торрент? · Рейтинг и ограничения

Сайт не распространяет и не хранит электронные версии произведений, а лишь предоставляет доступ к создаваемому пользователями каталогу ссылок на торрент-файлы, которые содержат только списки хеш-сумм

[Профиль] [ЛС]
Показать сообщения:    
Ответить на тему

Текущее время: Сегодня 11:41

Часовой пояс: GMT + 4



Вы не можете начинать темы
Вы не можете отвечать на сообщения
Вы не можете редактировать свои сообщения
Вы не можете удалять свои сообщения
Вы не можете голосовать в опросах
Вы не можете прикреплять файлы к сообщениям
Вы не можете скачивать файлы