Я - твой герой / Main Tera Hero (Дэвид Дхаван / David Dhawan) [2014, Индия, Комедия, мелодрама, HDRip] MVO (Zee TV)

Ответить на тему
 
Автор Сообщение

user ®

Стаж: 12 лет

Сообщений: 15092

Пост Пост: #1 от 19-Авг-2014 18:40

[Цитировать]

Я - твой герой / Main Tera Hero
-Страна: Индия
Жанр: Комедия, мелодрама
Год выпуска: 2014
Продолжительность: 02:07:19-Перевод: Профессиональный (многоголосый закадровый) - Zee TV
Субтитры: Нет--Режиссер: Дэвид Дхаван / David Dhawan-В ролях: Варун Дхаван, Илеана, Наргис Факхри, Арунодай Сингх, Анупам Кхер, Раджпал Ядав, Эвелин Шарма, Манодж Пахва, Суприя Шукла, Шириш Шарма-Описание: Сину (Варун Дхаван) - обаятельный юный прохвост с невинным лицом. Перевернув все с ног на голову в родном Ути, он, к нескрываемой радости всей деревни, решает продолжить учебу в Бангалоре. Студенческая жизнь сулит ему немало удовольствий, и самое большое среди них - девушки. Вот только понравившаяся ему Сунайна (Илеана) оказывается невестой местного инспектора полиции с замашками бандита Ангада (Арунодай Сингх), а в Бангкоке умирает от желания стать его женой дочь крутого гангстера Айша (Наргис Факри). Такая вот география.-- | --Качество видео: HDRip (исх. BDRip 1080p)
Формат видео: AVI-Видео: 720x304 (2.37:1), 24.000 fps, XviD build 50 ~1497 kbps avg, 0.28 bit/pixel
Аудио: 48 kHz, MPEG Layer 3, 2 ch, ~128.00 kbps-Сэмпл / Sample
-
Риппер, сведение звука: soso4eg-Внимание! Присутствует легкое запинание звука, так вещает канал Zee TV ((-- -
-
Скриншот с названием:
-
Скриншоты
-
MI
Общее
Полное имя : C:\INDIYA\Ya.Tvoy.Geroy.2014.HDRip.XviD-soso4eg.avi
Формат : AVI
Формат/Информация : Audio Video Interleave
Размер файла : 1,45 Гбайт
Продолжительность : 2 ч. 7 м.
Общий поток : 1635 Кбит/сек
Название фильма : Main.Tera.Hero.2014.HDRip.XviD-soso4eg
Режиссёр : soso4eg
Программа кодирования : VirtualDubMod 1.5.10.3 | www.virtualdub-fr.org || (build 2550/release)
Правообладатель : специально для BitTorrent трекер *** (ex torrents.ru)
Примечание : пер. Zee TV
Видео
Идентификатор : 0
Формат : MPEG-4 Visual
Профиль формата : Advanced Simple@L5
Параметр BVOP формата : 1
Параметр QPel формата : Нет
Параметр GMC формата : Без точки перехода
Параметр матрицы формата : Default (H.263)
Идентификатор кодека : XVID
Идентификатор кодека/Подсказка : XviD
Продолжительность : 2 ч. 7 м.
Битрейт : 1497 Кбит/сек
Ширина : 720 пикселей
Высота : 304 пикселя
Соотношение сторон : 2,35:1
Частота кадров : 24,000 кадра/сек
Цветовое пространство : YUV
Субдискретизация насыщенности : 4:2:0
Битовая глубина : 8 бит
Тип развёртки : Прогрессивная
Метод сжатия : С потерями
Бит/(Пиксели*Кадры) : 0.285
Размер потока : 1,33 Гбайт (92%)
Библиотека кодирования : XviD 1.2.1 (UTC 2008-12-04)
Аудио
Идентификатор : 1
Формат : MPEG Audio
Версия формата : Version 1
Профиль формата : Layer 3
Режим : Joint stereo
Идентификатор кодека : 55
Идентификатор кодека/Подсказка : MP3
Продолжительность : 2 ч. 7 м.
Вид битрейта : Постоянный
Битрейт : 128 Кбит/сек
Каналы : 2 канала
Частота : 48,0 КГц
Метод сжатия : С потерями
Размер потока : 117 Мбайт (8%)
Выравнивание : Соединение по промежуткам
Продолжительность промежутка : 42 мс. (1,00 видеокадр)
Время предзагрузки промежутка : 504 мс.
Скачать

Скачать торрент! Я - твой герой / Main Tera Hero (Дэвид Дхаван / David Dhawan) [2014, Индия, Комедия, мелодрама, HDRip] MVO (Zee TV)

Как скачивать? · Что такое торрент? · Рейтинг и ограничения

Сайт не распространяет и не хранит электронные версии произведений, а лишь предоставляет доступ к создаваемому пользователями каталогу ссылок на торрент-файлы, которые содержат только списки хеш-сумм

[Профиль] [ЛС]
Показать сообщения:    
Ответить на тему

Текущее время: Сегодня 16:23

Часовой пояс: GMT + 4



Вы не можете начинать темы
Вы не можете отвечать на сообщения
Вы не можете редактировать свои сообщения
Вы не можете удалять свои сообщения
Вы не можете голосовать в опросах
Вы не можете прикреплять файлы к сообщениям
Вы не можете скачивать файлы