Любовь по рецепту и без / Любовь, секс и химия / Better Living Through Chemistry (Джофф Мур / Geoff Moore) [2014, США, Драма, комедия, HDRip] Dub (лицензия)

Ответить на тему
 
Автор Сообщение

user ®

Стаж: 7 лет 7 месяцев

Сообщений: 20008

Пост Пост: #1 от 19-Авг-2014 15:30

[Цитировать]

Любовь по рецепту и без / Любовь, секс и химия / Better Living Through Chemistry
Страна: США
Жанр: Драма, комедия
Год выпуска: 2014
Продолжительность: 01:31:43
Перевод: Профессиональный (дублированный) лицензия
Cубтитры: нет
Режиссер: Джофф Мур / Geoff Moore, Дэвид Посаментир / David Posamentier
В ролях: Сэм Рокуэлл, Оливия Уайлд, Мишель Монахэн, Бен Шварц, Кен Ховард, Джейн Фонда, Рэй Лиотта, Норберт Лео Батц, Дженн Харрис, Харрисон Хольцер
Описание: Даг Варни — скромный фармацевт и подкаблучник. Всю жизнь окружающие пользовались его мягким характером и не принимали всерьёз. Но однажды произошла встреча, которая изменила всё. Её зовут Элизабет, она яркая, сексуальная, а ее девиз: «Жить нужно в кайф!». Она открыла глаза Дагу на то, что вся его жизнь сера и уныла, а ключ к успеху лежит у него перед носом. Стоит лишь протянуть руку. С этого момента Дага не узнать. Теперь он уверен в себе, женщины без ума от него в постели, а в спорте ему нет равных. Но увлекшись своей новой жизнью, он заходит слишком далеко, а, как известно, за все в жизни приходится платить.
Сэмпл: http://multi-up.com/992796
Качество видео: HDRip
Формат видео: AVI
Видео: 720x304 (2.35:1), 23.976 fps,XviD 1.2.1 ~1814 kbps avg, 0.346 bit/pixel
Аудио:48 kHz, AC3 Dolby Digital, 6 ch, ~448 kbps

MediaInfo
General
Complete name : F:\Download\Lubov.po.retseptu.i.bez.2014..avi
Format : AVI
Format/Info : Audio Video Interleave
File size : 1.46 GiB
Duration : 1h 31mn
Overall bit rate : 2 272 Kbps
Writing application : VirtualDubMod 1.5.10.3 | www.virtualdub-fr.org || (build 2550/release)
Writing library : VirtualDubMod build 2550/release
Video
ID : 0
Format : MPEG-4 Visual
Format profile : Advanced Simple@L5
Format settings, BVOP : 2
Format settings, QPel : No
Format settings, GMC : No warppoints
Format settings, Matrix : Default (MPEG)
Codec ID : XVID
Codec ID/Hint : XviD
Duration : 1h 31mn
Bit rate : 1 814 Kbps
Width : 720 pixels
Height : 304 pixels
Display aspect ratio : 2.35:1
Frame rate : 23.976 fps
Color space : YUV
Chroma subsampling : 4:2:0
Bit depth : 8 bits
Scan type : Progressive
Compression mode : Lossy
Bits/(Pixel*Frame) : 0.346
Stream size : 1.16 GiB (80%)
Writing library : XviD 1.2.1 (UTC 2008-12-04)
Audio
ID : 1
Format : AC-3
Format/Info : Audio Coding 3
Mode extension : CM (complete main)
Format settings, Endianness : Big
Codec ID : 2000
Duration : 1h 31mn
Bit rate mode : Constant
Bit rate : 448 Kbps
Channel(s) : 6 channels
Channel positions : Front: L C R, Side: L R, LFE
Sampling rate : 48.0 KHz
Bit depth : 16 bits
Compression mode : Lossy
Stream size : 294 MiB (20%)
Alignment : Split accross interleaves
Interleave, duration : 42 ms (1.00 video frame)
Interleave, preload duration : 500 ms
Скриншот c названием фильма Скриншоты
Скачать

Скачать торрент!

Как скачивать? · Что такое торрент? · Рейтинг и ограничения

Сайт не распространяет и не хранит электронные версии произведений, а лишь предоставляет доступ к создаваемому пользователями каталогу ссылок на торрент-файлы, которые содержат только списки хеш-сумм

[Профиль] [ЛС]
Показать сообщения:    
Ответить на тему

Текущее время: Сегодня 21:22

Часовой пояс: GMT + 4



Вы не можете начинать темы
Вы не можете отвечать на сообщения
Вы не можете редактировать свои сообщения
Вы не можете удалять свои сообщения
Вы не можете голосовать в опросах
Вы не можете прикреплять файлы к сообщениям
Вы не можете скачивать файлы