Мы любим, поэтому всё хорошо / Fly High (Квак Чжи Гюн / Kwak Ji Kyun)[2006, Южная Корея, романтика, мелодрама, комедия, HDRip] MVO (STEPonee)

Ответить на тему
 
Автор Сообщение

user ®

Стаж: 13 лет

Сообщений: 15071

Пост Пост: #1 от 19-Авг-2014 09:10

[Цитировать]

Мы любим, поэтому всё хорошо / Fly High / 사랑하니까, 괜찮아 / Sa-rang-han-i-kka go-en-chan-ha
Год выпуска: 2006
Страна: Южная Корея
Жанр: романтика, мелодрама, комедия
Продолжительность: 01:52:00
Перевод: любительский многоголосый закадровый [STEPonee]

Русские субтитры: нет
Режиссёр: Квак Чжи Гюн / Kwak Ji Kyun
В ролях:
Чжи Хён У (Ji Hyun Woo) - Кан Мин Хёк
Им Чон Ын (Lim Jeong Eun) - Хан Ми Хён
Чон Э Ри (Jung Ae Ri) - Ён Ын, мать Хан Ми Хён
Чон Хан Ён (Jung Han Yong) - отец Кан Мин Хёка
Чжу Хо (Joo Ho) - Ён Гу, друг Кан Мин Хёка
Пак Гён Хо (Park Kyeong Ho) - Хён Ил, друг Кан Мин Хёка
Кан Рэ Ён (Kang Rae Yeon) - Гён Им, подруга Хён Ила
Описание
В день школьного фестиваля Мин Хёк встречает девушку... в мужском туалете. И с того дня не может её забыть. Поздним вечером провожает её домой, заполняет школьный шкафчик розами и расчищает дорожку от снега перед её домом. Но все его усилия напрасны. А потом она внезапно уезжает, сказав на прощание лишь "извини"...
Сэмпл
Роли озвучивали:
  • Сергей Здоренко
  • Алексей Остапенко
  • Мэри
  • Ирина Пометнёва
    Перевод на русский язык: автор неизвестен
    Скриншот c названием фильма
Качество: HDRip (исходник неизвестен)
Формат: AVI
Видео: XviD, 720x400 (16:9), 23,976 к/с, 1257 кбит/с
Аудио: MP3 2.0, 48 кГц, 128 кбит/с
Отчёт MediaInfo
General
Complete name : Fly.High.2006.HDRip.XviD.400p.MP3.MVO.STEPonee.avi
Format : AVI
Format/Info : Audio Video Interleave
File size : 1,09 GiB
Duration : 1h 51mn
Overall bit rate : 1395 Kbps
Writing application : VirtualDubMod 1.5.4.1 (build 2178/release)
Writing library : VirtualDub build 35491/release
Video
ID : 0
Format : MPEG-4 Visual
Format profile : Advanced Simple@L5
Format settings, BVOP : 1
Format settings, QPel : No
Format settings, GMC : No warppoints
Format settings, Matrix : Default (MPEG)
Codec ID : XVID
Codec ID/Hint : XviD
Duration : 1h 51mn
Bit rate : 1257 Kbps
Width : 720 pixels
Height : 400 pixels
Display aspect ratio : 16:9
Frame rate : 23.976 fps
Color space : YUV
Chroma subsampling : 4:2:0
Bit depth : 8 bits
Scan type : Progressive
Compression mode : Lossy
Bits/(Pixel*Frame) : 0.182
Stream size : 1.004 GiB (90%)
Writing library : XviD 1.2.0.dev47 (UTC 2006-11-01)
Audio
ID : 1
Format : MPEG Audio
Format version : Version 1
Format profile : Layer 3
Mode : Joint stereo
Mode extension : MS Stereo
Codec ID : 55
Codec ID/Hint : MP3
Duration : 1h 51mn
Bit rate mode : Constant
Bit rate : 128 Kbps
Channel(s) : 2 channels
Sampling rate : 48.0 KHz
Compression mode : Lossy
Stream size : 102 MiB (9%)
Alignment : Aligned on interleaves
Interleave, duration : 42 ms (1.00 video frame)
Interleave, preload duration : 500 ms
Скриншоты Подготовка релиза:
  • Юрий Балякин, Ирина Пометнёва - обработка звука, монтаж
  • Ирина Пометнёва, Мэри - тайминг
  • Екатерина Проц - постер
    Все раздачи студии
[url=http://***/forum/tracker.php?nm=steponee]Все разделы[/url]
[url=http://***/forum/tracker.php?f=915&nm=steponee]Корейские сериалы[/url]
[url=http://***/forum/tracker.php?f=1939&nm=steponee]Японские сериалы[/url]
[url=http://***/forum/tracker.php?f=2412&nm=steponee]Прочие азиатские сериалы[/url]
[url=http://***/forum/tracker.php?f=934&nm=steponee]Азиатские фильмы[/url]
Скачать

Скачать торрент! Мы любим, поэтому всё хорошо / Fly High (Квак Чжи Гюн / Kwak Ji Kyun)[2006, Южная Корея, романтика, мелодрама, комедия, HDRip] MVO (STEPonee)

Как скачивать? · Что такое торрент? · Рейтинг и ограничения

Сайт не распространяет и не хранит электронные версии произведений, а лишь предоставляет доступ к создаваемому пользователями каталогу ссылок на торрент-файлы, которые содержат только списки хеш-сумм

[Профиль] [ЛС]
Показать сообщения:    
Ответить на тему

Текущее время: Сегодня 17:02

Часовой пояс: GMT + 4



Вы не можете начинать темы
Вы не можете отвечать на сообщения
Вы не можете редактировать свои сообщения
Вы не можете удалять свои сообщения
Вы не можете голосовать в опросах
Вы не можете прикреплять файлы к сообщениям
Вы не можете скачивать файлы