Оз: Возвращение в Изумрудный Город / Legends of Oz: Dorothy\'s Return (Уилл Финн / Will Finn, Дэн Ст. Пьер / Dan St. Pierre) [2013, мультфильм, мюзикл, семейный, BDRip-AVC] + Sub (Eng) + Original

Ответить на тему
 
Автор Сообщение

user ®

Стаж: 13 лет

Сообщений: 15041

Пост Пост: #1 от 19-Авг-2014 00:05

[Цитировать]

Оз: Возвращение в Изумрудный Город / Legends of Oz: Dorothy's Return- Страна: США, Индия
Жанр: мультфильм, мюзикл, семейный
Продолжительность: 01:32:02
Перевод: профессиональный полное дублирование R5
Год выпуска: 2013
Русские субтитры: нет
Режиссёр: Уилл Финн / Will Finn, Дэн Ст. Пьер / Dan St. Pierre
Роли озвучивали: Роли озвучивали: Лиа Мишель, Патрик Стюарт, Джеймс Белуши, Дэн Эйкройд, Келси Грэммер, Меган Хилти, Хью Дэнси, Оливер Плэтт, Бернадетт Питерс, Мартин Шорт
Роли дублировали: Полина Гагарина, Алексей Чумаков, Александр Головчанский, Станислав Дужников, Гарик Харламов-ОписаниеДороти снова магическим образом переносится в страну Оз, чтобы спасти от беды ее жителей. Но оказывается, что старые друзья Дороти — Страшила, Железный Дровосек и Храбрый Лев — исчезли. Путешествуя по стране в поисках своих друзей, Дороти встречает новых попутчиков — Капитана Зефира, Фарфоровую Принцессу и филина Савву. Дороти должна помочь таким разным героям объединиться, чтобы одолеть нового злодея — шута Джестера, который хочет захватить страну Оз при помощи черной магии.-Сэмпл

IMDb: 6.40 (3634)
Качество: BDRip-AVC
Формат: MKV
Видео: AVC 2625 Kbps 1024 x 576 (1.778) 23.976 fps
Аудио: AC-3 384 Kbps 6 channels, 48.0 KHz RUS DUB
Аудио 2: AC-3 384 Kbps 6 channels, 48.0 KHz ENG
Субтитры: Eng SRT
MI | Log
Log
x264 [info]: frame I:1314 Avg QP:12.99 size:162133
x264 [info]: frame P:37745 Avg QP:18.32 size: 25074
x264 [info]: frame B:93349 Avg QP:22.61 size: 6986
x264 [info]: consecutive B-frames: 5.3% 7.0% 8.8% 55.0% 7.7% 10.8% 1.3% 2.4% 0.4% 0.3% 0.2% 0.4% 0.4%
x264 [info]: mb I I16..4: 8.4% 53.1% 38.6%
x264 [info]: mb P I16..4: 1.4% 9.8% 1.9% P16..4: 22.8% 22.4% 10.9% 3.2% 0.8% skip:26.9%
x264 [info]: mb B I16..4: 0.2% 1.6% 0.3% B16..8: 24.1% 12.2% 2.7% direct: 3.2% skip:55.7% L0:40.4% L1:44.4% BI:15.2%
x264 [info]: 8x8 transform intra:71.5% inter:55.7%
x264 [info]: direct mvs spatial:94.2% temporal:5.8%
x264 [info]: coded y,uvDC,uvAC intra: 81.6% 85.5% 63.9% inter: 15.1% 15.2% 6.6%
x264 [info]: i16 v,h,dc,p: 9% 9% 7% 75%
x264 [info]: i8 v,h,dc,ddl,ddr,vr,hd,vl,hu: 8% 9% 6% 10% 13% 12% 14% 12% 16%
x264 [info]: i4 v,h,dc,ddl,ddr,vr,hd,vl,hu: 10% 10% 6% 9% 14% 13% 14% 11% 14%
x264 [info]: i8c dc,h,v,p: 37% 24% 17% 22%
x264 [info]: Weighted P-Frames: Y:4.3% UV:3.3%
x264 [info]: ref P L0: 54.5% 11.2% 12.2% 5.8% 3.6% 3.4% 2.4% 1.7% 1.3% 1.3% 1.1% 1.3% 0.2% 0.0%
x264 [info]: ref B L0: 80.5% 7.9% 4.3% 1.9% 1.6% 1.1% 1.0% 0.6% 0.6% 0.4% 0.2%
x264 [info]: ref B L1: 93.6% 6.4%
x264 [info]: kb/s:2624.26
x264 [total]: encoded 132408 frames, 10.34 fps, 2624.26 kb/s, duration 3:33:27.52
Format                                   : MatroskaFormat version                           : Version 4 / Version 2File size                                : 2.18 GiBDuration                                 : 1h 32mnOverall bit rate                         : 3 394 KbpsEncoded date                             : UTC 2014-08-18 16:09:11Writing application                      : mkvmerge v6.7.0 ('Back to the Ground') 32bit built on Jan  8 2014 15:03:17Writing library                          : libebml v1.3.0 + libmatroska v1.4.1
VideoID : 1Format : AVCFormat/Info : Advanced Video CodecFormat profile : High@L4.1Format settings, CABAC : YesFormat settings, ReFrames : 12 framesCodec ID : V_MPEG4/ISO/AVCDuration : 1h 32mnBit rate : 2 625 KbpsWidth : 1 024 pixelsHeight : 576 pixelsDisplay aspect ratio : 16:9Frame rate mode : ConstantFrame rate : 23.976 fpsColor space : YUVChroma subsampling : 4:2:0Bit depth : 8 bitsScan type : ProgressiveBits/(Pixel*Frame) : 0.186Stream size : 1.65 GiB (75%)Writing library : x264 core 142 r2453kMod ea0ca51Encoding settings : cabac=1 / ref=12 / deblock=1:-2:-1 / analyse=0x3:0x133 / me=umh / subme=11 / psy=1 / fade_compensate=0.00 / psy_rd=1.00:0.05 / mixed_ref=1 / me_range=32 / chroma_me=1 / trellis=2 / 8x8dct=1 / cqm=0 / deadzone=21,11 / fast_pskip=0 / chroma_qp_offset=-3 / threads=12 / lookahead_threads=3 / sliced_threads=0 / nr=0 / decimate=1 / interlaced=0 / bluray_compat=0 / constrained_intra=0 / fgo=0 / bframes=12 / b_pyramid=2 / b_adapt=2 / b_bias=0 / direct=3 / weightb=1 / open_gop=0 / weightp=2 / keyint=250 / keyint_min=23 / scenecut=40 / intra_refresh=0 / rc_lookahead=60 / rc=2pass / mbtree=1 / bitrate=2625 / ratetol=1.0 / qcomp=0.60 / qpmin=0 / qpmax=69 / qpstep=4 / cplxblur=20.0 / qblur=0.5 / ip_ratio=1.40 / aq=1:1.00Language : EnglishDefault : YesForced : No
Audio #1ID : 2Format : AC-3Format/Info : Audio Coding 3Mode extension : CM (complete main)Format settings, Endianness : BigCodec ID : A_AC3Duration : 1h 32mnBit rate mode : ConstantBit rate : 384 KbpsChannel(s) : 6 channelsChannel positions : Front: L C R, Side: L R, LFESampling rate : 48.0 KHzBit depth : 16 bitsCompression mode : LossyStream size : 253 MiB (11%)Title : DUBLanguage : RussianDefault : YesForced : No
Audio #2ID : 3Format : AC-3Format/Info : Audio Coding 3Mode extension : CM (complete main)Format settings, Endianness : BigCodec ID : A_AC3Duration : 1h 32mnBit rate mode : ConstantBit rate : 384 KbpsChannel(s) : 6 channelsChannel positions : Front: L C R, Side: L R, LFESampling rate : 48.0 KHzBit depth : 16 bitsCompression mode : LossyStream size : 253 MiB (11%)Title : OriginalLanguage : EnglishDefault : NoForced : No
TextID : 4Format : UTF-8Codec ID : S_TEXT/UTF8Codec ID/Info : UTF-8 Plain TextLanguage : EnglishDefault : NoForced : No
Menu00:00:00.000 : en:Chapter 0100:03:40.970 : en:Chapter 0200:05:14.397 : en:Chapter 0300:08:56.786 : en:Chapter 0400:12:02.012 : en:Chapter 0500:15:57.331 : en:Chapter 0600:19:32.629 : en:Chapter 0700:22:26.887 : en:Chapter 0800:25:17.182 : en:Chapter 0900:28:02.055 : en:Chapter 1000:29:57.337 : en:Chapter 1100:33:33.761 : en:Chapter 1200:35:27.125 : en:Chapter 1300:38:47.533 : en:Chapter 1400:43:44.580 : en:Chapter 1500:46:06.764 : en:Chapter 1600:48:36.580 : en:Chapter 1700:51:07.647 : en:Chapter 1800:54:42.737 : en:Chapter 1900:56:01.441 : en:Chapter 2000:59:25.853 : en:Chapter 2101:04:15.685 : en:Chapter 2201:06:55.011 : en:Chapter 2301:11:13.936 : en:Chapter 2401:14:10.904 : en:Chapter 2501:17:43.367 : en:Chapter 2601:21:38.143 : en:Chapter 2701:24:06.332 : en:Chapter 28
Скриншоты
Скачать

Скачать торрент! Оз: Возвращение в Изумрудный Город / Legends of Oz: Dorothy\'s Return (Уилл Финн / Will Finn, Дэн Ст. Пьер / Dan St. Pierre) [2013, мультфильм, мюзикл, семейный, BDRip-AVC] + Sub (Eng) + Original

Как скачивать? · Что такое торрент? · Рейтинг и ограничения

Сайт не распространяет и не хранит электронные версии произведений, а лишь предоставляет доступ к создаваемому пользователями каталогу ссылок на торрент-файлы, которые содержат только списки хеш-сумм

[Профиль] [ЛС]
Показать сообщения:    
Ответить на тему

Текущее время: Сегодня 19:51

Часовой пояс: GMT + 4



Вы не можете начинать темы
Вы не можете отвечать на сообщения
Вы не можете редактировать свои сообщения
Вы не можете удалять свои сообщения
Вы не можете голосовать в опросах
Вы не можете прикреплять файлы к сообщениям
Вы не можете скачивать файлы