Хороший человек / A Good Man ( Киони Ваксман / Kioni Waxman ) [2014, США, боевик, DVDRip] VO Lord32x

Ответить на тему
 
Автор Сообщение

user ®

Стаж: 7 лет 7 месяцев

Сообщений: 20008

Пост Пост: #1 от 19-Авг-2014 00:05

[Цитировать]

Хороший человек / A Good Man
Страна: США
Жанр: боевик
Год выпуска: 2014
Продолжительность: 01:43:05
Перевод: Одноголосый закадровый Lord32x [по субтитрам Lord32x]
Cубтитры: нет
Режиссер: Киони Ваксман
В ролях: Стивен Сигал, Виктор Уэбстер, Ци Ма, Рон Балики, Юлия Вердес, Massimo Dobrovic, Элиас Феркин
Описание: Александр — идеальный солдат, но во время миссии в Ираке, на его руках умирает маленькая девочка, после чего он решил отойти от дел. Сэм Хуан — силовик, то ли связанный с Триадами, то ли воюющий против них, отправил, хорошо заплатив, безопасным путем свою маленькую сестру Миа в США. Мистер Чэн гнусным образом вешает на Сэма убийство, которое он совершил, а также похищает его сестру и передает бандитам. Александр решается помочь Сэму вернуть сестру и покончить с Триадой. Число жертв растет, Александр возвращается в то, что умеет делать лучше всего — это убивать.
Сэмпл: http://multi-up.com/993331
Качество видео: DVDRip
Формат видео: AVI
Видео: Xvid 720x400 23.976fps 1547kbps
Аудио: Dolby AC3 48000Hz 6ch 384kbps
Релиз: GIPERWAREZ
MediaInfo
General
Complete name : C:\Users\User\Desktop\A.Good.Man.2014.DVDRip.GIPERWAREZ.avi
Format : AVI
Format/Info : Audio Video Interleave
File size : 1.40 GiB
Duration : 1h 43mn
Overall bit rate : 1 941 Kbps
Writing application : VirtualDubMod 1.5.10.3 | www.virtualdub-fr.org || (build 2550/release)
Writing library : VirtualDubMod build 2550/release
Video
ID : 0
Format : MPEG-4 Visual
Format profile : Advanced Simple@L5
Format settings, BVOP : 1
Format settings, QPel : No
Format settings, GMC : No warppoints
Format settings, Matrix : Default (H.263)
Muxing mode : Packed bitstream
Codec ID : XVID
Codec ID/Hint : XviD
Duration : 1h 43mn
Bit rate : 1 548 Kbps
Width : 720 pixels
Height : 400 pixels
Display aspect ratio : 16:9
Frame rate : 23.976 fps
Color space : YUV
Chroma subsampling : 4:2:0
Bit depth : 8 bits
Scan type : Progressive
Compression mode : Lossy
Bits/(Pixel*Frame) : 0.224
Stream size : 1.11 GiB (80%)
Writing library : XviD 1.2.1 (UTC 2008-12-04)
Audio
ID : 1
Format : AC-3
Format/Info : Audio Coding 3
Mode extension : CM (complete main)
Format settings, Endianness : Big
Codec ID : 2000
Duration : 1h 43mn
Bit rate mode : Constant
Bit rate : 384 Kbps
Channel(s) : 6 channels
Channel positions : Front: L C R, Side: L R, LFE
Sampling rate : 48.0 KHz
Bit depth : 16 bits
Compression mode : Lossy
Stream size : 283 MiB (20%)
Alignment : Split accross interleaves
Interleave, duration : 42 ms (1.00 video frame)
Interleave, preload duration : 500 ms
Скриншот c названием фильма Скриншоты
Скачать

Скачать торрент!

Как скачивать? · Что такое торрент? · Рейтинг и ограничения

Сайт не распространяет и не хранит электронные версии произведений, а лишь предоставляет доступ к создаваемому пользователями каталогу ссылок на торрент-файлы, которые содержат только списки хеш-сумм

[Профиль] [ЛС]
Показать сообщения:    
Ответить на тему

Текущее время: Сегодня 21:42

Часовой пояс: GMT + 4



Вы не можете начинать темы
Вы не можете отвечать на сообщения
Вы не можете редактировать свои сообщения
Вы не можете удалять свои сообщения
Вы не можете голосовать в опросах
Вы не можете прикреплять файлы к сообщениям
Вы не можете скачивать файлы