Женщина-ящерица / Tuk kae phii / Lizard Woman (Маноп Удомдеж / Manop Udomdej) [2004, Таиланд, ужасы, триллер, DVDRip] DVO (den904 & DeadSno)

Ответить на тему
 
Автор Сообщение

user ®

Стаж: 13 лет

Сообщений: 15071

Пост Пост: #1 от 18-Авг-2014 17:45

[Цитировать]

Женщина-ящерица / Tuk kae phii / Lizard Woman
Страна: Таиланд
Жанр: ужасы, триллер
Год выпуска: 2004
Продолжительность: 01:34:28
Перевод: Любительский (двухголосый закадровый) [2D] - перевод на русский язык [Ворон] - работа со звуком [Гуннлауг]
Cубтитры: нет
Оригинальная аудиодорожка: нет
Режиссер: Маноп Удомдеж / Manop Udomdej
В ролях: Пете Тонгчуер, Рунграви Баридзиндакул, Ковит Ваттанакуль, Вантип Павапутанон, Сарают Сритонг, Чаттхапонг Пантанаункул, Исика Тангсричанон, Софита Срибанчеан, Казуки Ёно, Саито Кано.
Описание: Тайская писательница романов о паранормальных явлениях отправляется на встречу со своими читателями в отдалённую часть страны, которая окружена мифами и легендами. И одна из этих легенд посвящена проклятию Женщины-Ящерицы. Писательница возвращается домой и скоро страницы ее нового романа о призраках начнут оживать. Кошмарные виденья с ужасной женщиной-рептилией становятся явью...


скачать СЕМПЛ с multi-up
Качество видео: DVDRip
Формат видео: AVI
Видео: 704x432 (1.63:1), 25 fps, XviD MPEG-4 ~2007 kbps avg, 0.26 bit/pixel
Аудио: 48 kHz, AC3 Dolby Digital, 2/0 (L,R) ch, ~192 kbps
MediaInfo
X:\Lizard.Woman.2004.DVDRip.XViD.KOLOBOK.avi
General
Complete name : X:\Lizard.Woman.2004.DVDRip.XViD.KOLOBOK.avi
Format : AVI
Format/Info : Audio Video Interleave
File size : 1.46 GiB
Duration : 1h 34mn
Overall bit rate : 2 209 Kbps
Writing application : VirtualDubMod 1.5.10.3 | www.virtualdub-fr.org || (build 2550/release)
Writing library : VirtualDubMod build 2550/release
Video #0
ID : 0
Format : MPEG-4 Visual
Format profile : Advanced Simple@L5
Format settings, BVOP : 2
Format settings, QPel : No
Format settings, GMC : No warppoints
Format settings, Matrix : Default (H.263)
Muxing mode : Packed bitstream
Codec ID : XVID
Codec ID/Hint : XviD
Duration : 1h 34mn
Bit rate : 2 008 Kbps
Width : 704 pixels
Height : 432 pixels
Display aspect ratio : 1.630
Frame rate : 25.000 fps
Color space : YUV
Chroma subsampling : 4:2:0
Bit depth : 8 bits
Scan type : Progressive
Compression mode : Lossy
Bits/(Pixel*Frame) : 0.264
Stream size : 1.32 GiB (91%)
Writing library : XviD 1.2.1 (UTC 2008-12-04)
Audio #1
ID : 1
Format : AC-3
Format/Info : Audio Coding 3
Mode extension : CM (complete main)
Codec ID : 2000
Duration : 1h 34mn
Bit rate mode : Constant
Bit rate : 192 Kbps
Channel(s) : 2 channels
Channel positions : Front: L R
Sampling rate : 48.0 KHz
Bit depth : 16 bits
Compression mode : Lossy
Stream size : 130 MiB (9%)
Alignment : Split accross interleaves
Interleave, duration : 40 ms (1.00 video frame)
Interleave, preload duration : 500 ms
Скриншот c названием фильма Скриншоты Релиз от:
Скачать

Скачать торрент! Женщина-ящерица / Tuk kae phii / Lizard Woman (Маноп Удомдеж / Manop Udomdej) [2004, Таиланд, ужасы, триллер, DVDRip] DVO (den904 & DeadSno)

Как скачивать? · Что такое торрент? · Рейтинг и ограничения

Сайт не распространяет и не хранит электронные версии произведений, а лишь предоставляет доступ к создаваемому пользователями каталогу ссылок на торрент-файлы, которые содержат только списки хеш-сумм

[Профиль] [ЛС]
Показать сообщения:    
Ответить на тему

Текущее время: Сегодня 20:22

Часовой пояс: GMT + 4



Вы не можете начинать темы
Вы не можете отвечать на сообщения
Вы не можете редактировать свои сообщения
Вы не можете удалять свои сообщения
Вы не можете голосовать в опросах
Вы не можете прикреплять файлы к сообщениям
Вы не можете скачивать файлы