В тридесятом веке (Владимир Самсонов) [1972, мультфильм, DVB]

Ответить на тему
 
Автор Сообщение

user ®

Стаж: 7 лет 7 месяцев

Сообщений: 20008

Пост Пост: #1 от 18-Авг-2014 01:20

[Цитировать]

В тридесятом веке
Жанр: мультфильм
Год выпуска: 1972
Продолжительность: 00:14:07
Режиссёр: Владимир Самсонов
Описание: мультфильм о мальчике, улетевшем на другую планету помогать обитателям, попавшим в беду...
Доп. информация: огромная благодарность [url=http://***/forum/profile.php?mode=viewprofile&u=1721925] [/url] за предоставленный исходник

Релиз группы:
Трансляция спутникового канала:

Качество видео: DVB
Формат видео: MPEG-PS
Видео: MPEG2 Video, 720x576@768x576 (4:3), анаморф, 25 fps, 4100 kbps
Аудио: MPEG Audio, 2 сh, 48 kHz, 192 Kbps
MediaInfo
General
Complete name : D:\В тридесятом веке. (1972)_DVB by RG multfilms.mpg
Format : MPEG-PS
File size : 443 MiB
Duration : 14mn 7s
Overall bit rate mode : Variable
Overall bit rate : 4 383 Kbps
Video
ID : 224 (0xE0)
Format : MPEG Video
Format version : Version 2
Format profile : Main@Main
Format settings, BVOP : No
Format settings, Matrix : Custom
Format settings, GOP : M=3, N=12
Duration : 14mn 7s
Bit rate mode : Variable
Bit rate : 4 104 Kbps
Maximum bit rate : 10 000 Kbps
Width : 720 pixels
Height : 576 pixels
Display aspect ratio : 4:3
Frame rate : 25.000 fps
Standard : PAL
Color space : YUV
Chroma subsampling : 4:2:0
Bit depth : 8 bits
Scan type : Interlaced
Scan order : Top Field First
Compression mode : Lossy
Bits/(Pixel*Frame) : 0.396
Time code of first frame : 00:00:00:00
Time code source : Group of pictures header
Stream size : 415 MiB (94%)
Audio
ID : 192 (0xC0)
Format : MPEG Audio
Format version : Version 1
Format profile : Layer 2
Duration : 14mn 7s
Bit rate mode : Constant
Bit rate : 192 Kbps
Channel(s) : 2 channels
Sampling rate : 48.0 KHz
Compression mode : Lossy
Stream size : 19.4 MiB (4%)
Скриншоты
Скачать

Скачать торрент!

Как скачивать? · Что такое торрент? · Рейтинг и ограничения

Сайт не распространяет и не хранит электронные версии произведений, а лишь предоставляет доступ к создаваемому пользователями каталогу ссылок на торрент-файлы, которые содержат только списки хеш-сумм

[Профиль] [ЛС]
Показать сообщения:    
Ответить на тему

Текущее время: Сегодня 07:58

Часовой пояс: GMT + 4



Вы не можете начинать темы
Вы не можете отвечать на сообщения
Вы не можете редактировать свои сообщения
Вы не можете удалять свои сообщения
Вы не можете голосовать в опросах
Вы не можете прикреплять файлы к сообщениям
Вы не можете скачивать файлы