Симулянт / The Ringer (Бэрри В. Блауштейн / Barry W. Blaustein) [2005, США, Комедия, Спортивный, BDRip 1080p] MVO + DVO + Original Eng + Sub Eng

Ответить на тему
 
Автор Сообщение

user ®

Стаж: 7 лет 7 месяцев

Сообщений: 20008

Пост Пост: #1 от 18-Авг-2014 01:20

[Цитировать]

Симулянт / The Ringer
Страна: США
Студия: Fox Searchlight
Жанр: Комедия, Спортивный
Год выпуска: 2005
Продолжительность: 01:34:16
Перевод 1: Профессиональный (многоголосый закадровый) - 1-й канал
Перевод 2: Профессиональный (двухголосый закадровый)
Cубтитры: английские
Оригинальная аудиодорожка: английский
Режиссер: Бэрри В. Блауштейн / Barry W. Blaustein
В ролях: Джонни Ноксвил, Брайан Кокс, Кэтрин Хайгл, Джед Риис, Билл Чотт, Эдвард Барбанелл, Леонард Эрл Хоуз, Джеффри Аренд, Джон Тейлор, Луис Авалос, Леонард Флауэрс (Johnny Knoxville, Brian Cox, Katherine Heigl, Jed Rees, Bill Chott, Edward Barbanell, Leonard Earl Howze, Geoffrey Arend, John Taylor, Luis Avalos, Leonard Flowers)
Описание: Дядя и его племянник решили заработать на Олимпийских играх для инвалидов, чтобы решить накопившиеся финансовые проблемы. Племянник бросает вызов действующему чемпиону, страдающему умственными отклонениями…
Доп. информация: Автор рипа - AmPirCo. Многоголосый перевод 1-го канала найден в сети. Двухголосый перевод неизвестного происхождения взят из [url=http://***/forum/viewtopic.php?t=4384064]раздачи rjhlb777[/url]. Сохранено разбиение на главы оригинального BD. Так же присутствует дорожка с комментариями режиссера и актеров.
К сожалению, в дорожке 1-го канала по каким-то причинам отсутствовал фрагмент с 00:02:00 по 00:03:09. Он заменен фрагментом из второй дорожки.
Сэмпл
Тип релиза: BDRip 1080p
Контейнер: MKV
Видео: 1920x816p, 23,976 fps, x264, 10611 kbps
Аудио 1: Russian - MVO (Dolby AC3, 2 ch) 192 Kbps / 48 000 Hz
Аудио 2: Russian - DVO (Dolby AC3, 2 ch) 192 Kbps / 48 000 Hz
Аудио 3: English (DTS, 6 ch) 1509 Kbps / 48 000 Hz
Аудио 4: English - Director's comments (Dolby AC3, 2 ch) 224 Kbps / 48 000 Hz
Субтитры: English
MediaInfo
Уникальный идентификатор : 234481496499714886174362204638576777891 (0xB0677E5961A8C630B6EC55E0A8161AA3)
Полное имя : The.Ringer.(2005).BDrip.1080p.x264.RUS.AC3.ENG.DTS.mkv
Формат : Matroska
Версия формата : Version 4 / Version 2
Размер файла : 8,38 Гбайт
Продолжительность : 1 ч. 34 м.
Общий поток : 12,7 Мбит/сек
Название фильма : The Ringer (2005) BDRip 1080p
Дата кодирования : UTC 2014-08-16 06:45:32
Программа кодирования : mkvmerge v7.1.0 ('Good Love') 32bit built on Jul 27 2014 12:59:18
Библиотека кодирования : libebml v1.3.0 + libmatroska v1.4.1
DURATION : 01:34:16.150000000
NUMBER_OF_FRAMES : 530264
NUMBER_OF_BYTES : 1066891168
_STATISTICS_WRITING_APP : mkvmerge v7.1.0 ('Good Love') 32bit built on Jul 27 2014 12:59:18
_STATISTICS_WRITING_DATE_UTC : 2014-08-16 06:45:32
_STATISTICS_TAGS : BPS DURATION NUMBER_OF_FRAMES NUMBER_OF_BYTES
Видео
Идентификатор : 1
Формат : AVC
Формат/Информация : Advanced Video Codec
Профиль формата : High@L4.1
Параметр CABAC формата : Да
Параметр ReFrames формата : 5 кадров
Идентификатор кодека : V_MPEG4/ISO/AVC
Продолжительность : 1 ч. 34 м.
Битрейт : 10,6 Мбит/сек
Ширина : 1920 пикселей
Высота : 816 пикселей
Соотношение сторон : 2,35:1
Режим частоты кадров : Постоянный
Частота кадров : 23,976 кадра/сек
Цветовое пространство : YUV
Субдискретизация насыщенности : 4:2:0
Битовая глубина : 8 бит
Тип развёртки : Прогрессивная
Бит/(Пиксели*Кадры) : 0.282
Размер потока : 6,82 Гбайт (81%)
Библиотека кодирования : x264 core 142 r2431 ac76440
Настройки программы : cabac=1 / ref=5 / deblock=1:-3:-3 / analyse=0x3:0x113 / me=umh / subme=9 / psy=1 / psy_rd=1.00:0.00 / mixed_ref=1 / me_range=32 / chroma_me=1 / trellis=2 / 8x8dct=1 / cqm=0 / deadzone=21,11 / fast_pskip=0 / chroma_qp_offset=-2 / threads=6 / lookahead_threads=1 / sliced_threads=0 / nr=0 / decimate=1 / interlaced=0 / bluray_compat=0 / constrained_intra=0 / bframes=6 / b_pyramid=2 / b_adapt=2 / b_bias=0 / direct=3 / weightb=1 / open_gop=0 / weightp=2 / keyint=240 / keyint_min=23 / scenecut=40 / intra_refresh=0 / rc=2pass / mbtree=0 / bitrate=10611 / ratetol=1.0 / qcomp=0.60 / qpmin=10 / qpmax=51 / qpstep=4 / cplxblur=20.0 / qblur=0.5 / ip_ratio=1.40 / pb_ratio=1.30 / aq=1:1.00
Язык : English
Default : Да
Forced : Нет
DURATION : 01:34:16.109000000
NUMBER_OF_FRAMES : 135611
NUMBER_OF_BYTES : 7498000615
_STATISTICS_WRITING_APP : mkvmerge v7.1.0 ('Good Love') 32bit built on Jul 27 2014 12:59:18
_STATISTICS_WRITING_DATE_UTC : 2014-08-16 06:45:32
_STATISTICS_TAGS : BPS DURATION NUMBER_OF_FRAMES NUMBER_OF_BYTES
Аудио #1
Идентификатор : 2
Формат : AC-3
Формат/Информация : Audio Coding 3
Расширение режима : CM (complete main)
Параметр Endianness формата : Big
Идентификатор кодека : A_AC3
Продолжительность : 1 ч. 34 м.
Вид битрейта : Постоянный
Битрейт : 192 Кбит/сек
Каналы : 2 канала
Расположение каналов : Front: L R
Частота : 48,0 КГц
Битовая глубина : 16 бит
Метод сжатия : С потерями
Размер потока : 129 Мбайт (2%)
Заголовок : 1-й канал
Язык : Russian
Default : Да
Forced : Нет
Аудио #2
Идентификатор : 3
Формат : AC-3
Формат/Информация : Audio Coding 3
Расширение режима : CM (complete main)
Параметр Endianness формата : Big
Идентификатор кодека : A_AC3
Продолжительность : 1 ч. 34 м.
Вид битрейта : Постоянный
Битрейт : 192 Кбит/сек
Каналы : 2 канала
Расположение каналов : Front: L R
Частота : 48,0 КГц
Битовая глубина : 16 бит
Метод сжатия : С потерями
Размер потока : 129 Мбайт (2%)
Заголовок : DVO
Язык : Russian
Default : Нет
Forced : Нет
Аудио #3
Идентификатор : 4
Формат : DTS
Формат/Информация : Digital Theater Systems
Режим : 16
Параметр Endianness формата : Big
Идентификатор кодека : A_DTS
Продолжительность : 1 ч. 34 м.
Вид битрейта : Постоянный
Битрейт : 1509 Кбит/сек
Каналы : 6 каналов
Расположение каналов : Front: L C R, Side: L R, LFE
Частота : 48,0 КГц
Битовая глубина : 24 бит
Метод сжатия : С потерями
Размер потока : 1017 Мбайт (12%)
Заголовок : Original
Язык : English
Default : Нет
Forced : Нет
Аудио #4
Идентификатор : 5
Формат : AC-3
Формат/Информация : Audio Coding 3
Расширение режима : CM (complete main)
Параметр Endianness формата : Big
Идентификатор кодека : A_AC3
Продолжительность : 1 ч. 34 м.
Вид битрейта : Постоянный
Битрейт : 224 Кбит/сек
Каналы : 2 канала
Расположение каналов : Front: L R
Частота : 48,0 КГц
Битовая глубина : 16 бит
Метод сжатия : С потерями
Размер потока : 151 Мбайт (2%)
Заголовок : Director's comments
Язык : English
Default : Нет
Forced : Нет
Текст
Идентификатор : 6
Формат : UTF-8
Идентификатор кодека : S_TEXT/UTF8
Идентификатор кодека/Информация : UTF-8 Plain Text
Язык : English
Default : Нет
Forced : Нет
Меню
00:00:00.000 : en:Loser
00:05:15.106 : en:Fickle Fingers of Fate
00:07:35.037 : en:Uncle Gary's Problem
00:09:49.463 : en:Uncle Gary's Idea
00:14:13.686 : en:Practice Makes Perfect
00:16:01.627 : en:Jeffy
00:20:27.643 : en:Roommates
00:23:19.564 : en:Tryouts
00:26:17.993 : en:In Training
00:28:26.705 : en:Food Follies
00:31:36.936 : en:Lunch with Lynn
00:37:52.311 : en:Busted
00:42:34.677 : en:Jeffy's Apology
00:43:38.616 : en:The New Trainers
00:46:43.342 : en:Camping Is Fun
00:48:50.093 : en:Advice for the Lovelorn
00:51:11.818 : en:The Costco Trip
00:53:41.635 : en:A Terrible Person
00:55:09.723 : en:Going Soft
00:57:43.042 : en:Friends
01:00:14.360 : en:David's Deception
01:03:53.204 : en:The First Day
01:08:17.218 : en:The Only Girl on the Planet
01:13:50.509 : en:No Gray Areas
01:15:10.047 : en:The Final Event
01:19:34.603 : en:A Fraud
01:23:29.087 : en:Starting Fresh
01:27:20.485 : en:End Titles
Скриншоты
Скачать

Скачать торрент!

Как скачивать? · Что такое торрент? · Рейтинг и ограничения

Сайт не распространяет и не хранит электронные версии произведений, а лишь предоставляет доступ к создаваемому пользователями каталогу ссылок на торрент-файлы, которые содержат только списки хеш-сумм

[Профиль] [ЛС]
Показать сообщения:    
Ответить на тему

Текущее время: Сегодня 04:24

Часовой пояс: GMT + 4



Вы не можете начинать темы
Вы не можете отвечать на сообщения
Вы не можете редактировать свои сообщения
Вы не можете удалять свои сообщения
Вы не можете голосовать в опросах
Вы не можете прикреплять файлы к сообщениям
Вы не можете скачивать файлы