Немезида / Nemesis (Альберт Пьюн / Albert Pyun) [1992, США, Дания, фантастика, боевик, триллер, BDRemux 1080p] DVO (Twister) + 3х AVO (Гаврилов, Санаев, Живов) + Sub Rus, Eng + Original Eng

Ответить на тему
 
Автор Сообщение

user ®

Стаж: 7 лет 7 месяцев

Сообщений: 20008

Пост Пост: #1 от 18-Авг-2014 01:20

[Цитировать]

Немезида / Nemesis
Страна: США, Дания
Жанр: фантастика, боевик, триллер
Год выпуска: 1992
Продолжительность: 01:35:41
-
Перевод 1: Профессиональный (двухголосый закадровый) Twister
Перевод 2: Авторский (одноголосый закадровый) Андрей Гаврилов
Перевод 3: Авторский (одноголосый закадровый) Павел Санаев
Перевод 4: Авторский (одноголосый закадровый) Юрий Живов (со вставками Санаева)
Cубтитры: русские (Twister) и английские
Оригинальная аудиодорожка: английский
-
Режиссер: Альберт Пьюн / Albert Pyun
В ролях: Оливье Грюнер, Тим Томерсон, Кэри-Хироюки Тагава, Мерл Кеннеди, Юдзи Окумото, Марджори Монахэн, Николас Гест, Винсент Клин, Том Мэтьюз, Марджин Холден
-
Описание: Кибернетика достигла такого могущества, что любая часть тела может быть заменена, даже мозг. Эта сверхтехнология порождает существа, которые являются скорее киборгами, чем людьми.Секретный агент Алекс после многочисленых ранений подвергся кибернетической хирургии. Он попытался отказаться вернуться на службу, но его обвинили в контрабанде и имплатировали в сердце бомбу, которая может быть взорвана в любой момент. Теперь у Алекса нет выбора, он должен отыскать похищенный компьютерный чип, за которым отчаянно охотятся террористы. Этот чип — ключ к плану киборгов захватить власть на Земле.Основная подозреваемая — Джаред, коллега и бывшая любовница Алекса. Но, оказавшись у цели, Алекс обнаруживает, что его используют как наживку, на которую можно «выманить» Джаред и террористов.
-

-
Сэмпл: https://www.sendspace.com/file/1nv9r5
-
Тип релиза: BDRemux 1080p
Контейнер: MKV
Видео: 1 920x1 080p (16:9), 23.976 fps, 19.4 Mbps
Аудио 1: Русский AC3 5.1, 48 kHz, 384 kbps — Профессиональный (двухголосый закадровый) Twister
Аудио 2: Русский AC3 2.0, 48 kHz, 192 kbps — Авторский (одноголосый закадровый) Андрей Гаврилов
Аудио 3: Русский AC3 2.0, 48 kHz, 192 kbps — Авторский (одноголосый закадровый) Павел Санаев
Аудио 4: Русский AC3 2.0, 48 kHz, 192 kbps — Авторский (одноголосый закадровый) Юрий Живов (со вставками Санаева)
Аудио 5: Английский AC3 5.1, 48 kHz, 448 kbps — Original Eng
Формат субтитров: softsub (SRT)
Главы: есть
Доп. информация
Исходник любезно предоставил Danil6300, за что ему большое спасибо,
зв. дорожки отсюда [url=http://***/forum/viewtopic.php?t=4802350]http://***/forum/viewtopic.php?t=4802350[/url]
MediaInfo
General
Unique ID : 187890124996687408718768250522720881513 (0x8D5A52616440D3E280988C96A9C14B69)
Complete name : C:\Users\ALEX\Downloads\Фильмы\HD\Nemesis.1992.BDRemux.1080p.4XRus.Eng.Subs.Chpt.mkv
Format : Matroska
Format version : Version 4 / Version 2
File size : 14.2 GiB
Duration : 1h 35mn
Overall bit rate mode : Variable
Overall bit rate : 21.2 Mbps
Movie name : Nemesis 1992 Open Matte 1080p Blu-ray Remux AVC DD 5.1 - KRaLiMaRKo
Encoded date : UTC 2014-08-16 04:20:31
Writing application : mkvmerge v6.6.0 ('The Edge Of The In Between') built on Dec 1 2013 17:55:00
Writing library : libebml v1.3.0 + libmatroska v1.4.1
Video
ID : 1
Format : AVC
Format/Info : Advanced Video Codec
Format profile : Main@L4.1
Format settings, CABAC : Yes
Format settings, ReFrames : 3 frames
Codec ID : V_MPEG4/ISO/AVC
Duration : 1h 35mn
Bit rate mode : Variable
Bit rate : 19.4 Mbps
Maximum bit rate : 24.9 Mbps
Width : 1 920 pixels
Height : 1 080 pixels
Display aspect ratio : 16:9
Frame rate mode : Constant
Frame rate : 23.976 fps
Standard : NTSC
Color space : YUV
Chroma subsampling : 4:2:0
Bit depth : 8 bits
Scan type : Progressive
Bits/(Pixel*Frame) : 0.390
Stream size : 13.0 GiB (91%)
Language : English
Default : Yes
Forced : No
Audio #1
ID : 2
Format : AC-3
Format/Info : Audio Coding 3
Mode extension : CM (complete main)
Format settings, Endianness : Big
Codec ID : A_AC3
Duration : 1h 35mn
Bit rate mode : Constant
Bit rate : 384 Kbps
Channel(s) : 6 channels
Channel positions : Front: L C R, Side: L R, LFE
Sampling rate : 48.0 KHz
Bit depth : 16 bits
Compression mode : Lossy
Stream size : 263 MiB (2%)
Title : Двухголосый, Twister
Language : Russian
Default : Yes
Forced : No
Audio #2
ID : 3
Format : AC-3
Format/Info : Audio Coding 3
Mode extension : CM (complete main)
Format settings, Endianness : Big
Codec ID : A_AC3
Duration : 1h 35mn
Bit rate mode : Constant
Bit rate : 192 Kbps
Channel(s) : 2 channels
Channel positions : Front: L R
Sampling rate : 48.0 KHz
Bit depth : 16 bits
Compression mode : Lossy
Stream size : 131 MiB (1%)
Title : Авторский, Гаврилов
Language : Russian
Default : No
Forced : No
Audio #3
ID : 4
Format : AC-3
Format/Info : Audio Coding 3
Mode extension : CM (complete main)
Format settings, Endianness : Big
Codec ID : A_AC3
Duration : 1h 35mn
Bit rate mode : Constant
Bit rate : 192 Kbps
Channel(s) : 2 channels
Channel positions : Front: L R
Sampling rate : 48.0 KHz
Bit depth : 16 bits
Compression mode : Lossy
Stream size : 131 MiB (1%)
Title : Авторский, Санаев
Language : Russian
Default : No
Forced : No
Audio #4
ID : 5
Format : AC-3
Format/Info : Audio Coding 3
Mode extension : CM (complete main)
Format settings, Endianness : Big
Codec ID : A_AC3
Duration : 1h 35mn
Bit rate mode : Constant
Bit rate : 192 Kbps
Channel(s) : 2 channels
Channel positions : Front: L R
Sampling rate : 48.0 KHz
Bit depth : 16 bits
Compression mode : Lossy
Stream size : 131 MiB (1%)
Title : Авторский, Живов (со вставками Санаева)
Language : Russian
Default : No
Forced : No
Audio #5
ID : 6
Format : AC-3
Format/Info : Audio Coding 3
Mode extension : CM (complete main)
Format settings, Endianness : Big
Codec ID : A_AC3
Duration : 1h 35mn
Bit rate mode : Constant
Bit rate : 448 Kbps
Channel(s) : 6 channels
Channel positions : Front: L C R, Side: L R, LFE
Sampling rate : 48.0 KHz
Bit depth : 16 bits
Compression mode : Lossy
Stream size : 307 MiB (2%)
Title : Оригинал
Language : Russian
Default : No
Forced : No
Text #1
ID : 7
Format : UTF-8
Codec ID : S_TEXT/UTF8
Codec ID/Info : UTF-8 Plain Text
Title : Full
Language : Russian
Default : No
Forced : No
Text #2
ID : 8
Format : UTF-8
Codec ID : S_TEXT/UTF8
Codec ID/Info : UTF-8 Plain Text
Title : Full
Language : English
Default : No
Forced : No
Menu
00:00:00.000 : en:00:00:00.000
00:00:00.375 : en:00:00:00.375
00:10:00.600 : en:00:10:00.600
00:20:01.200 : en:00:20:01.200
00:30:01.800 : en:00:30:01.800
00:40:02.400 : en:00:40:02.400
00:50:03.000 : en:00:50:03.000
01:00:03.600 : en:01:00:03.600
01:10:04.200 : en:01:10:04.200
01:20:04.800 : en:01:20:04.800
01:30:05.400 : en:01:30:05.400
Скриншоты
Скачать

Скачать торрент!

Как скачивать? · Что такое торрент? · Рейтинг и ограничения

Сайт не распространяет и не хранит электронные версии произведений, а лишь предоставляет доступ к создаваемому пользователями каталогу ссылок на торрент-файлы, которые содержат только списки хеш-сумм

[Профиль] [ЛС]
Показать сообщения:    
Ответить на тему

Текущее время: Сегодня 14:36

Часовой пояс: GMT + 4



Вы не можете начинать темы
Вы не можете отвечать на сообщения
Вы не можете редактировать свои сообщения
Вы не можете удалять свои сообщения
Вы не можете голосовать в опросах
Вы не можете прикреплять файлы к сообщениям
Вы не можете скачивать файлы