Фронтера / Граница / Frontera (Майкл Берри / Michael Berry) [2014, США, драма, WEB-DLRip] VO (В. Береговых) + Original Eng

Ответить на тему
 
Автор Сообщение

user ®

Стаж: 7 лет 7 месяцев

Сообщений: 20008

Пост Пост: #1 от 17-Авг-2014 16:20

[Цитировать]

Фронтера / Граница / Frontera
Страна: США
Жанр: драма
Год выпуска: 2014
Продолжительность: 01:42:56
Перевод: Одноголосый закадровый (Виктор Береговых) - по переводу Михаила Васильева
Cубтитры: местами английские вшитые на испанскую речь
Оригинальная аудиодорожка: английский
Режиссер: Майкл Берри / Michael Berry
В ролях: Эд Харрис, Майкл Пенья, Ева Лонгория, Эми Мэдиган, Даниэль Сакапа, Кристен Рейкс, Мэттью Пейдж, Сет Эдкинс, Лора Каннингэм ,Алекс Найт
Описание: Убита жена бывшего шерифа Аризоны. Все указывает на причастность к убийству мексиканца, нелегально въехавшего на территорию США. Муж убитой решает объединиться с действующим шерифом, чтобы докопаться до истины…
Отличие: [url=http://***/forum/viewtopic.php?t=4803232]http://***/forum/viewtopic.php?t=4803232[/url] - другие перевод и озвучка
Сэмпл: https://www.sendspace.com/file/5ofznm
Качество видео: WEB-DLRip
Формат видео: AVI
Видео: XviD, 720x304 (2.35:1), 23.976 fps, 1522 kbps avg, 0.290 bit/pixel
Аудио: AC3, 48.0 KHz, 192 Kbps, 2 channels (русский, одноголосый закадровый)
Аудио 2: AC3, 48.0 KHz, 192 Kbps, 2 channels (английский)
MediaInfo
Format : AVI
Format/Info : Audio Video Interleave
File size : 1.38 GiB
Duration : 1h 42mn
Overall bit rate : 1 920 Kbps
Writing application : VirtualDubMod 1.5.10.2 (build 2540/release)
Writing library : VirtualDubMod build 2540/release
Video
ID : 0
Format : MPEG-4 Visual
Format profile : AdvancedSimple@L5
Format settings, BVOP : Yes
Format settings, QPel : No
Format settings, GMC : No warppoints
Format settings, Matrix : Default (H.263)
Codec ID : XVID
Codec ID/Hint : XviD
Duration : 1h 42mn
Bit rate : 1 522 Kbps
Width : 720 pixels
Height : 304 pixels
Display aspect ratio : 2.35:1
Frame rate : 23.976 fps
Resolution : 24 bits
Colorimetry : 4:2:0
Scan type : Progressive
Bits/(Pixel*Frame) : 0.290
Stream size : 1.09 GiB (79%)
Writing library : XviD 1.2.1 (UTC 2008-12-04)
Audio #1
ID : 1
Format : AC-3
Format/Info : Audio Coding 3
Codec ID : 2000
Duration : 1h 42mn
Bit rate mode : Constant
Bit rate : 192 Kbps
Channel(s) : 2 channels
Channel positions : L R
Sampling rate : 48.0 KHz
Stream size : 141 MiB (10%)
Alignment : Split accross interleaves
Interleave, duration : 42 ms (1.00 video frame)
Interleave, preload duration : 500 ms
Audio #2
ID : 2
Format : AC-3
Format/Info : Audio Coding 3
Codec ID : 2000
Duration : 1h 42mn
Bit rate mode : Constant
Bit rate : 192 Kbps
Channel(s) : 2 channels
Channel positions : L R
Sampling rate : 48.0 KHz
Stream size : 141 MiB (10%)
Alignment : Split accross interleaves
Interleave, duration : 42 ms (1.00 video frame)
Interleave, preload duration : 500 ms
Скриншот c названием фильма Скриншоты Информация об актерах
Эд Харрис - 4 х кратный номинант на Оскар (аполло 13, шоу трумана, часы, поллок)
В роли его жены - Эми Мэдиган которая в реальности жена Харриса и тоже номинировалась на оскар
Ева Лонгория - звезда сериала Отчаянные домохозяйки
Скачать

Скачать торрент!

Как скачивать? · Что такое торрент? · Рейтинг и ограничения

Сайт не распространяет и не хранит электронные версии произведений, а лишь предоставляет доступ к создаваемому пользователями каталогу ссылок на торрент-файлы, которые содержат только списки хеш-сумм

[Профиль] [ЛС]
Показать сообщения:    
Ответить на тему

Текущее время: Сегодня 03:07

Часовой пояс: GMT + 4



Вы не можете начинать темы
Вы не можете отвечать на сообщения
Вы не можете редактировать свои сообщения
Вы не можете удалять свои сообщения
Вы не можете голосовать в опросах
Вы не можете прикреплять файлы к сообщениям
Вы не можете скачивать файлы