Сердце героя / 25 Hill / Heart of a Hero (Корбин Бернсен / Corbin Bernsen) [2011, США, драма, HDTV 1080i] MVO

Ответить на тему
 
Автор Сообщение

user ®

Стаж: 7 лет 7 месяцев

Сообщений: 20008

Пост Пост: #1 от 17-Авг-2014 10:00

[Цитировать]

Сердце героя / 25 Hill aka "Heart of a Hero"«Save the Dream, Save the Tradition, Save the Derby!» Страна: США
Жанр: драма
Год выпуска: 2011
Продолжительность: 01:43:31
Перевод: Профессиональный (многоголосый закадровый)
Cубтитры: нет
Режиссер: Корбин Бернсен / Corbin Bernsen
В ролях: Нэйтан Гэмбл, Тимоти Омандсон, Морин Флэннигэн, Ronal Fergeson, Уинстон Ау, Кен МакДональд, Ролонда Уоттс, Cathy Kondik, James Greilick, Корбин Бернсен
Описание: Юный Трой, чей отец, военный, погиб, знакомится с Роем Гиббсом, сын которого также героически отдал жизнь, выполняя спасательную операцию на службе в 911. Им предстоит совместный путь преодоления своего горя.

Кинопоиск: http://www.kinopoisk.ru/film/506194/
Сэмпл: http://rusfolder.com/41470545
Тип релиза: HDTV 1080i
Контейнер: TS
Видео: AVC/H.264, PAL, 1920x1080 (16:9), 9106 Кбит/сек, 25.000 fps
Аудио: русский, MP-2, 48000 Hz, 192 Кбит/сек, 2 ch
MediaInfo
Видео
Идентификатор : 224 (0xE0)
Идентификатор меню : 1 (0x1)
Формат : AVC
Формат/Информация : Advanced Video Codec
Профиль формата : High@L4.1
Параметр CABAC формата : Да
Параметр ReFrames формата : 3 кадра
Идентификатор кодека : 27
Продолжительность : 1 ч. 43 м.
Вид битрейта : Постоянный
Битрейт : 9106 Кбит/сек
Ширина : 1920 пикселей
Высота : 1080 пикселей
Соотношение сторон : 16:9
Частота кадров : 25,000 кадров/сек
Стандарт вещания : PAL
Цветовое пространство : YUV
Субдискретизация насыщенности : 4:2:0
Битовая глубина : 8 бит
Тип развёртки : Чересстрочная
Порядок развёртки : Верхнее поле первое
Бит/(Пиксели*Кадры) : 0.176
Размер потока : 6,46 Гбайт (93%)
Основные цвета : BT.709
Характеристики трансфера : BT.709
Коэффициенты матрицы : BT.709
Аудио
Идентификатор : 192 (0xC0)
Идентификатор меню : 1 (0x1)
Формат : MPEG Audio
Версия формата : Version 1
Профиль формата : Layer 2
Идентификатор кодека : 3
Продолжительность : 1 ч. 43 м.
Вид битрейта : Постоянный
Битрейт : 192 Кбит/сек
Каналы : 2 канала
Частота : 48,0 КГц
Метод сжатия : С потерями
Задержка видео : 8 мс.
Размер потока : 142 Мбайт (2%)
Язык : Russian
Скриншот с названием фильма Скриншоты
Скачать

Скачать торрент!

Как скачивать? · Что такое торрент? · Рейтинг и ограничения

Сайт не распространяет и не хранит электронные версии произведений, а лишь предоставляет доступ к создаваемому пользователями каталогу ссылок на торрент-файлы, которые содержат только списки хеш-сумм

[Профиль] [ЛС]
Показать сообщения:    
Ответить на тему

Текущее время: Сегодня 18:20

Часовой пояс: GMT + 4



Вы не можете начинать темы
Вы не можете отвечать на сообщения
Вы не можете редактировать свои сообщения
Вы не можете удалять свои сообщения
Вы не можете голосовать в опросах
Вы не можете прикреплять файлы к сообщениям
Вы не можете скачивать файлы