Пульс / Pulse (Джим Сонзеро / Jim Sonzero) [2006 г., США, ужасы, фантастика, фэнтези, триллер, детектив, BDRip 1080p] Dub + Original Eng + Sub (Rus, Eng)

Ответить на тему
 
Автор Сообщение

user ®

Стаж: 7 лет 7 месяцев

Сообщений: 20008

Пост Пост: #1 от 17-Авг-2014 00:35

[Цитировать]

-Пульс / Pulse«Вторжение началось» Страна: США
Студия: Distant Horizons, Neo Art & Logic, The Weinstein Company LLC
Жанр: Ужасы, фантастика, фэнтези, триллер, детектив
Год выпуска: 2006
Продолжительность: 01:28:10-Перевод: Профессиональный (полное дублирование)
Оригинальная аудиодорожка: английский
Cубтитры: русские, английские
Режиссер: Джим Сонзеро / Jim Sonzero
В ролях: Кристен Белл, Иен Сомерхолдер, Кристина Милиан, Рик Гонсалес, Джонатан Такер, Сэмм Ливайн, Октавия Спенсер, Рон Рифкин, Джозеф Гатт, Кел О’Нил, Зэк Гренье, Рики Линдхоум
Описание: Представьте себе, что беспроводные технологии могут связывать человека не только с кем-либо находящимся на другом конце земного шара, но и с другим миром. Миром мертвых. Представьте, что ваш сотовый телефон или ваша электронная почта - дверь. И когда вы звоните по мобильному, или работаете с e-mail, эта дверь открывается, и в наш мир проникают они. Они уже умерли. И они могут сделать так, что умрете и вы. Спрятаться негде, убежать невозможно. Вы уже заражены.-
Сэмпл: скачать-Релиз от -
Автор рипа: Elheym
Качество: BDRip 1080p (источник: / Blu-ray Remux / 1080p)
Контейнер: MKV
Видео: 1920x800 (2.40:1), 23.976 fps, MPEG-4 AVC, ~15750 kbps avg, 0.428 bit/pixel
Аудио #1: Русский: DTS, 5.1, 48 kHz, ~768 Кбит/с | Профессиональный (полное дублирование) |
Аудио #2: Английский: DTS, 5.1, 48 kHz, ~1510 Кбит/с | Оригинал |
Субтитры: Русские (полные), Английские (полные, полные SDH)
Главы: Присутствуют, сохранены оригинальные (подписаны)
Размер: 11.1 GB
MediaInfo
Уникальный идентификатор : 219643647787088016193384310817507490099 (0xA53DD3ED1C20ED40B648A7386D43B933)
Полное имя : Pulse.2006.1080p.BluRay.Rus.Eng.-HQCLUB.mkv
Формат : Matroska
Версия формата : Version 2
Размер файла : 11,1 Гбайт
Продолжительность : 1 ч. 28 м.
Общий поток : 18,0 Мбит/сек
Дата кодирования : UTC 2014-08-15 05:13:21
Программа кодирования : mkvmerge v5.2.0 ('I can't explain') built on Dec 18 2011 18:12:03
Библиотека кодирования : libebml v1.2.3 + libmatroska v1.3.0
Видео
Идентификатор : 1
Формат : AVC
Формат/Информация : Advanced Video Codec
Профиль формата : High@L4.1
Параметр CABAC формата : Да
Параметр ReFrames формата : 4 кадра
Идентификатор кодека : V_MPEG4/ISO/AVC
Продолжительность : 1 ч. 28 м.
Битрейт : 15,8 Мбит/сек
Ширина : 1920 пикселей
Высота : 800 пикселей
Соотношение сторон : 2,40:1
Режим частоты кадров : Постоянный
Частота кадров : 23,976 кадра/сек
Цветовое пространство : YUV
Субдискретизация насыщенности : 4:2:0
Битовая глубина : 8 бит
Тип развёртки : Прогрессивная
Бит/(Пиксели*Кадры) : 0.428
Размер потока : 9,48 Гбайт (85%)
Заголовок : Пульс / Pulse (2006) BDRip 1080p by HQCLUB [Elheym]
Библиотека кодирования : x264 core 142 r2453 ea0ca51
Настройки программы : cabac=1 / ref=5 / deblock=1:-3:-2 / analyse=0x3:0x113 / me=umh / subme=11 / psy=1 / psy_rd=1.00:0.15 / mixed_ref=1 / me_range=32 / chroma_me=1 / trellis=2 / 8x8dct=1 / cqm=0 / deadzone=21,11 / fast_pskip=1 / chroma_qp_offset=-5 / threads=6 / lookahead_threads=1 / sliced_threads=0 / nr=0 / decimate=1 / interlaced=0 / bluray_compat=0 / constrained_intra=0 / bframes=12 / b_pyramid=1 / b_adapt=2 / b_bias=0 / direct=3 / weightb=1 / open_gop=0 / weightp=2 / keyint=240 / keyint_min=23 / scenecut=40 / intra_refresh=0 / rc_lookahead=40 / rc=2pass / mbtree=0 / bitrate=15750 / ratetol=1.0 / qcomp=0.70 / qpmin=10 / qpmax=69 / qpstep=4 / cplxblur=20.0 / qblur=0.5 / vbv_maxrate=50000 / vbv_bufsize=62500 / nal_hrd=none / filler=0 / ip_ratio=1.40 / pb_ratio=1.30 / aq=1:0.90
Язык : English
Default : Да
Forced : Нет
Аудио #1
Идентификатор : 2
Формат : DTS
Формат/Информация : Digital Theater Systems
Режим : 16
Параметр Endianness формата : Big
Идентификатор кодека : A_DTS
Продолжительность : 1 ч. 28 м.
Вид битрейта : Постоянный
Битрейт : 768 Кбит/сек
Каналы : 6 каналов
Расположение каналов : Front: L C R, Side: L R, LFE
Частота : 48,0 КГц
Битовая глубина : 24 бит
Метод сжатия : С потерями
Размер потока : 484 Мбайт (4%)
Заголовок : DTS 5.1 @ 768 kbps - Dub
Язык : Russian
Default : Нет
Forced : Нет
Аудио #2
Идентификатор : 3
Формат : DTS
Формат/Информация : Digital Theater Systems
Режим : 16
Параметр Endianness формата : Big
Идентификатор кодека : A_DTS
Продолжительность : 1 ч. 28 м.
Вид битрейта : Постоянный
Битрейт : 1510 Кбит/сек
Каналы : 6 каналов
Расположение каналов : Front: L C R, Side: L R, LFE
Частота : 48,0 КГц
Битовая глубина : 24 бит
Метод сжатия : С потерями
Размер потока : 952 Мбайт (8%)
Заголовок : DTS 5.1 @ 1510 kbps - Original
Язык : English
Default : Нет
Forced : Нет
Текст #1
Идентификатор : 4
Формат : UTF-8
Идентификатор кодека : S_TEXT/UTF8
Идентификатор кодека/Информация : UTF-8 Plain Text
Заголовок : Full
Язык : Russian
Default : Нет
Forced : Нет
Текст #2
Идентификатор : 5
Формат : UTF-8
Идентификатор кодека : S_TEXT/UTF8
Идентификатор кодека/Информация : UTF-8 Plain Text
Заголовок : Full
Язык : English
Default : Нет
Forced : Нет
Текст #3
Идентификатор : 6
Формат : UTF-8
Идентификатор кодека : S_TEXT/UTF8
Идентификатор кодека/Информация : UTF-8 Plain Text
Заголовок : Full SDH
Язык : English
Default : Нет
Forced : Нет
Меню
00:00:00.000 : en:Library Encounter
00:06:08.409 : en:Mixed Messages
00:11:35.361 : en:Escape
00:16:50.592 : en:Mourning
00:20:42.616 : en:"Helpme."
00:25:13.053 : en:The Infection Spreads
00:30:08.765 : en:"Do You Want to Meet a Ghost?"
00:37:05.348 : en:Frightful Visions
00:40:38.727 : en:Occupied
00:44:49.520 : en:Piecing the Puzzle Together
00:50:19.850 : en:Paranoia
00:53:03.430 : en:Unbalanced Load
00:56:49.948 : en:"I See You"
01:02:08.266 : en:Answers
01:09:31.208 : en:The Lab
01:18:45.846 : en:The Will to Live/End Credits
01:28:09.867 : en:
x264 log
x264 [info]: frame I:757 Avg QP:15.44 size:184618
x264 [info]: frame P:27861 Avg QP:16.49 size:116051
x264 [info]: frame B:98220 Avg QP:18.60 size: 71682
x264 [info]: consecutive B-frames: 3.1% 3.3% 9.6% 9.9% 13.2% 47.7% 4.9% 1.7% 1.5% 1.8% 1.5% 0.9% 1.0%
x264 [info]: ref P L0: 55.8% 8.5% 23.1% 11.2% 1.3% 0.1%
x264 [info]: ref B L0: 78.1% 16.7% 5.1%
x264 [info]: ref B L1: 89.2% 10.8%
Скриншоты Сравнения
Скачать

Скачать торрент!

Как скачивать? · Что такое торрент? · Рейтинг и ограничения

Сайт не распространяет и не хранит электронные версии произведений, а лишь предоставляет доступ к создаваемому пользователями каталогу ссылок на торрент-файлы, которые содержат только списки хеш-сумм

[Профиль] [ЛС]
Показать сообщения:    
Ответить на тему

Текущее время: Сегодня 01:14

Часовой пояс: GMT + 4



Вы не можете начинать темы
Вы не можете отвечать на сообщения
Вы не можете редактировать свои сообщения
Вы не можете удалять свои сообщения
Вы не можете голосовать в опросах
Вы не можете прикреплять файлы к сообщениям
Вы не можете скачивать файлы