Киборг / Cyborg (Альберт Пьюн / Albert Pyun) [1989, США, фантастика, боевик, постапокалипсис, BDRip 1080p] 3х MVO + 3х DVO + 3х AVO + 2х VO + Ukr + Sub Rus, Eng + Original Eng

Ответить на тему
 
Автор Сообщение

user ®

Стаж: 7 лет 7 месяцев

Сообщений: 20008

Пост Пост: #1 от 17-Авг-2014 00:35

[Цитировать]

Киборг / Cyborg
Страна: США
Жанр: фантастика, боевик, постапокалипсис
Год выпуска: 1989
Продолжительность: 01:26:24
-
Перевод 1: Профессиональный (двухголосый закадровый) Twister
Перевод 2: Профессиональный (многоголосый закадровый) Союз-Видео
Перевод 3: Профессиональный (двухголосый закадровый) НТВ+ по заказу НТВ
Перевод 4: Профессиональный (многоголосый закадровый) Россия (со вставками ТВ6)
Перевод 5: Профессиональный (многоголосый закадровый) СТС
Перевод 6: Профессиональный (двухголосый закадровый) ТВ6
Перевод 7: Авторский (одноголосый закадровый) Андрей Гаврилов
Перевод 8: Авторский (одноголосый закадровый) Вартан Дохалов
Перевод 9: Авторский (одноголосый закадровый) Леонид Володарский
Перевод 10: Студийный (одноголосый закадровый) Студия Святослав (одна вставка Неизвестного)
Перевод 11: Одноголосый Неизвестный
Cубтитры: русские Forced, Full и английские Full
Оригинальная аудиодорожка: английский
-
Режиссер: Альберт Пьюн / Albert Pyun
В ролях: Жан-Клод Ван Дамм, Дебора Рихтер, Винсент Клин, Алекс Дэниелс, Дейл Хэддон, Блэйз Лунг, Ральф Мёллер, Хейли Питерсон, Терри Батсон, Джексон «Скала» Пинкни
-
Описание: Америка 21-го века, прозябая в социальной анархии и смертоносной чуме, вот-вот станет жертвой бурного воровского беспредела. Только Перл Профет, прекрасная полуженщина-полуробот, знает секрет создания спасительной вакцины. Собирая компоненты, необходимые для спасения человечества, Перл попадает в плен к людоеду Флэшу Пайротсу, который замыслил использовать противоядие в личных целях и добиться господства над целым миром. Теперь только стальной кулак героя-меченосца Гибсона Рикенбакера может спасти ее, а заодно и все, что еще осталось от человечества…
-

-
Сэмпл: https://www.sendspace.com/file/ruakpx
-
Тип релиза: BDRip 1080p
Контейнер: MKV
Видео: 1904x1024p (1.85:1), 23.976 fps, 12250 kbps
Аудио 1: русский / DTS / 2.0 / 48 kHz / 755 kbps / 24 bit || DVO - Twister
Аудио 2: русский / AC3 / 2.0 / 48 kHz / 192 kbps / 16 bit || MVO - Союз-Видео
Аудио 3: русский / AC3 / 2.0 / 48 kHz / 192 kbps / 16 bit || DVO - НТВ+ по заказу НТВ
Аудио 4: русский / AC3 / 2.0 / 48 kHz / 192 kbps / 16 bit || MVO - Россия (со вставками ТВ6)
Аудио 5: русский / AC3 / 2.0 / 48 kHz / 192 kbps / 16 bit || MVO - СТС
Аудио 6: русский / AC3 / 2.0 / 48 kHz / 224 kbps / 16 bit || DVO - ТВ6
Аудио 7: русский / FLAC / 2.0 / 48 kHz / ~584 kbps / 16 bit || AVO - Гаврилов
Аудио 8: русский / AC3 / 2.0 / 48 kHz / 192 kbps / 16 bit || AVO - Дохалов
Аудио 9: русский / AC3 / 2.0 / 48 kHz / 192 kbps / 16 bit || AVO - Володарский
Аудио 10: русский / AC3 / 2.0 / 48 kHz / 192 kbps / 16 bit || VO - Студия Святослав (одна вставка Неизвестного)
Аудио 11: русский / AC3 / 2.0 / 48 kHz / 192 kbps / 16 bit || VO - Неизвестный
Аудио 12: украинский / AC3 / 2.0 / 48 kHz / 192 kbps / 16 bit || MVO - Т/к 1+1
Аудио 13: английский / DTS / 2.0 / 48 kHz / 755 kbps / 24 bit || ENG
Формат субтитров: softsub (SRT)
Главы: есть
Доп. информация
Зв. дорожки: 1,9,12,13 - [url=http://***/forum/viewtopic.php?t=4238772]http://***/forum/viewtopic.php?t=4238772[/url]
3,4,5,10,11 - [url=http://***/forum/viewtopic.php?t=4759368]http://***/forum/viewtopic.php?t=4759368[/url]
2 - [url=http://***/forum/viewtopic.php?t=4310993]http://***/forum/viewtopic.php?t=4310993[/url]
7 - [url=http://***/forum/viewtopic.php?t=4296761]http://***/forum/viewtopic.php?t=4296761[/url]
8 - [url=http://***/forum/viewtopic.php?t=2911496]http://***/forum/viewtopic.php?t=2911496[/url] (Дохалов без рычания льва в начале - добавлена тишина в начале с помощью Sony Sound Forge Pro)
6 - [url=http://***/forum/viewtopic.php?t=4442424]http://***/forum/viewtopic.php?t=4442424[/url]
видео с рутора.
Всем авторам спасибо.
Старую раздачу можно закрыть [url=http://***/forum/viewtopic.php?t=4230040]http://***/forum/viewtopic.php?t=4230040[/url]
MediaInfo
General
Unique ID : 247858867367732808892269486156524450214 (0xBA77E1A7A904DDF59683A1D0E4F671A6)
Complete name : C:\Users\ALEX\Downloads\Фильмы\HD\Cyborg.1989.BDRip.1080p.11XRus.Ukr.Eng.Subs.Chpt.mkv
Format : Matroska
Format version : Version 4 / Version 2
File size : 9.85 GiB
Duration : 1h 26mn
Overall bit rate mode : Variable
Overall bit rate : 16.3 Mbps
Movie name : Cyborg.1989
Encoded date : UTC 2014-08-15 07:49:54
Writing application : mkvmerge v6.6.0 ('The Edge Of The In Between') built on Dec 1 2013 17:55:00
Writing library : libebml v1.3.0 + libmatroska v1.4.1
Video
ID : 1
Format : AVC
Format/Info : Advanced Video Codec
Format profile : High@L4.1
Format settings, CABAC : Yes
Format settings, ReFrames : 4 frames
Codec ID : V_MPEG4/ISO/AVC
Duration : 1h 26mn
Nominal bit rate : 12.3 Mbps
Width : 1 904 pixels
Height : 1 024 pixels
Display aspect ratio : 1.85:1
Frame rate mode : Constant
Frame rate : 23.976 fps
Color space : YUV
Chroma subsampling : 4:2:0
Bit depth : 8 bits
Scan type : Progressive
Bits/(Pixel*Frame) : 0.262
Title : Hatfield.
Writing library : x264 core 129 r2245 bc13772
Encoding settings : cabac=1 / ref=4 / deblock=1:-3:-3 / analyse=0x3:0x113 / me=umh / subme=11 / psy=1 / psy_rd=1.00:0.10 / mixed_ref=1 / me_range=32 / chroma_me=1 / trellis=2 / 8x8dct=1 / cqm=0 / deadzone=21,11 / fast_pskip=0 / chroma_qp_offset=-3 / threads=9 / lookahead_threads=1 / sliced_threads=0 / nr=0 / decimate=0 / interlaced=0 / bluray_compat=0 / constrained_intra=0 / bframes=5 / b_pyramid=2 / b_adapt=2 / b_bias=0 / direct=3 / weightb=1 / open_gop=0 / weightp=2 / keyint=240 / keyint_min=23 / scenecut=40 / intra_refresh=0 / rc=2pass / mbtree=0 / bitrate=12250 / ratetol=1.0 / qcomp=0.60 / qpmin=0 / qpmax=69 / qpstep=4 / cplxblur=20.0 / qblur=0.5 / ip_ratio=1.40 / pb_ratio=1.30 / aq=1:0.80
Language : English
Default : Yes
Forced : No
Audio #1
ID : 2
Format : DTS
Format/Info : Digital Theater Systems
Mode : 16
Format settings, Endianness : Big
Codec ID : A_DTS
Duration : 1h 26mn
Bit rate mode : Constant
Bit rate : 768 Kbps
Channel(s) : 2 channels
Channel positions : Front: L R
Sampling rate : 48.0 KHz
Bit depth : 24 bits
Compression mode : Lossy
Stream size : 475 MiB (5%)
Title : Двухголосый, Twister
Language : Russian
Default : Yes
Forced : No
Audio #2
ID : 3
Format : AC-3
Format/Info : Audio Coding 3
Mode extension : CM (complete main)
Format settings, Endianness : Big
Codec ID : A_AC3
Duration : 1h 26mn
Bit rate mode : Constant
Bit rate : 192 Kbps
Channel(s) : 2 channels
Channel positions : Front: L R
Sampling rate : 48.0 KHz
Bit depth : 16 bits
Compression mode : Lossy
Stream size : 119 MiB (1%)
Title : Многоголосый, Союз-Видео
Language : Russian
Default : No
Forced : No
Audio #3
ID : 4
Format : AC-3
Format/Info : Audio Coding 3
Mode extension : CM (complete main)
Format settings, Endianness : Big
Codec ID : A_AC3
Duration : 1h 26mn
Bit rate mode : Constant
Bit rate : 192 Kbps
Channel(s) : 2 channels
Channel positions : Front: L R
Sampling rate : 48.0 KHz
Bit depth : 16 bits
Compression mode : Lossy
Stream size : 119 MiB (1%)
Title : Двухголосый, НТВ+ по заказу НТВ
Language : Russian
Default : No
Forced : No
Audio #4
ID : 5
Format : AC-3
Format/Info : Audio Coding 3
Mode extension : CM (complete main)
Format settings, Endianness : Big
Codec ID : A_AC3
Duration : 1h 26mn
Bit rate mode : Constant
Bit rate : 192 Kbps
Channel(s) : 2 channels
Channel positions : Front: L R
Sampling rate : 48.0 KHz
Bit depth : 16 bits
Compression mode : Lossy
Stream size : 119 MiB (1%)
Title : Многоголосый, Россия (со вставками ТВ6)
Language : Russian
Default : No
Forced : No
Audio #5
ID : 6
Format : AC-3
Format/Info : Audio Coding 3
Mode extension : CM (complete main)
Format settings, Endianness : Big
Codec ID : A_AC3
Duration : 1h 26mn
Bit rate mode : Constant
Bit rate : 192 Kbps
Channel(s) : 2 channels
Channel positions : Front: L R
Sampling rate : 48.0 KHz
Bit depth : 16 bits
Compression mode : Lossy
Stream size : 119 MiB (1%)
Title : Многоголосый, СТС
Language : Russian
Default : No
Forced : No
Audio #6
ID : 7
Format : AC-3
Format/Info : Audio Coding 3
Mode extension : CM (complete main)
Format settings, Endianness : Big
Codec ID : A_AC3
Duration : 1h 26mn
Bit rate mode : Constant
Bit rate : 224 Kbps
Channel(s) : 2 channels
Channel positions : Front: L R
Sampling rate : 48.0 KHz
Bit depth : 16 bits
Compression mode : Lossy
Stream size : 138 MiB (1%)
Title : Двухголосый, ТВ-6
Language : Russian
Default : No
Forced : No
Audio #7
ID : 8
Format : FLAC
Format/Info : Free Lossless Audio Codec
Codec ID : A_FLAC
Duration : 1h 26mn
Bit rate mode : Variable
Channel(s) : 2 channels
Sampling rate : 48.0 KHz
Bit depth : 16 bits
Title : Авторский, Гаврилов
Writing library : libFLAC 1.2.1 (UTC 2007-09-17)
Language : Russian
Default : No
Forced : No
Audio #8
ID : 9
Format : AC-3
Format/Info : Audio Coding 3
Mode extension : CM (complete main)
Format settings, Endianness : Big
Codec ID : A_AC3
Duration : 1h 26mn
Bit rate mode : Constant
Bit rate : 192 Kbps
Channel(s) : 2 channels
Channel positions : Front: L R
Sampling rate : 48.0 KHz
Bit depth : 16 bits
Compression mode : Lossy
Stream size : 119 MiB (1%)
Title : Авторский, Дохалов
Language : Russian
Default : No
Forced : No
Audio #9
ID : 10
Format : AC-3
Format/Info : Audio Coding 3
Format profile : Dolby Digital
Mode extension : CM (complete main)
Format settings, Endianness : Big
Codec ID : A_AC3
Duration : 1h 26mn
Bit rate mode : Constant
Bit rate : 192 Kbps
Channel(s) : 2 channels
Channel positions : Front: L R
Sampling rate : 48.0 KHz
Bit depth : 16 bits
Compression mode : Lossy
Stream size : 119 MiB (1%)
Title : Авторский, Володарский
Language : Russian
Default : No
Forced : No
Audio #10
ID : 11
Format : AC-3
Format/Info : Audio Coding 3
Mode extension : CM (complete main)
Format settings, Endianness : Big
Codec ID : A_AC3
Duration : 1h 26mn
Bit rate mode : Constant
Bit rate : 192 Kbps
Channel(s) : 2 channels
Channel positions : Front: L R
Sampling rate : 48.0 KHz
Bit depth : 16 bits
Compression mode : Lossy
Stream size : 119 MiB (1%)
Title : Студийный одноголосый, студия Святослав (одна вставка Неизвестного)
Language : Russian
Default : No
Forced : No
Audio #11
ID : 12
Format : AC-3
Format/Info : Audio Coding 3
Mode extension : CM (complete main)
Format settings, Endianness : Big
Codec ID : A_AC3
Duration : 1h 26mn
Bit rate mode : Constant
Bit rate : 192 Kbps
Channel(s) : 2 channels
Channel positions : Front: L R
Sampling rate : 48.0 KHz
Bit depth : 16 bits
Compression mode : Lossy
Stream size : 119 MiB (1%)
Title : Одноголосый, Неизвестный
Language : Russian
Default : No
Forced : No
Audio #12
ID : 13
Format : AC-3
Format/Info : Audio Coding 3
Mode extension : CM (complete main)
Format settings, Endianness : Big
Codec ID : A_AC3
Duration : 1h 26mn
Bit rate mode : Constant
Bit rate : 192 Kbps
Channel(s) : 2 channels
Channel positions : Front: L R
Sampling rate : 48.0 KHz
Bit depth : 16 bits
Compression mode : Lossy
Stream size : 119 MiB (1%)
Title : Многоголосый украинский, Т/к 1+1
Language : Ukrainian
Default : No
Forced : No
Audio #13
ID : 14
Format : DTS
Format/Info : Digital Theater Systems
Mode : 16
Format settings, Endianness : Big
Codec ID : A_DTS
Duration : 1h 26mn
Bit rate mode : Constant
Bit rate : 768 Kbps
Channel(s) : 2 channels
Channel positions : Front: L R
Sampling rate : 48.0 KHz
Bit depth : 24 bits
Compression mode : Lossy
Stream size : 475 MiB (5%)
Title : Оригинал
Language : English
Default : No
Forced : No
Text #1
ID : 15
Format : UTF-8
Codec ID : S_TEXT/UTF8
Codec ID/Info : UTF-8 Plain Text
Title : Forced
Language : Russian
Default : Yes
Forced : No
Text #2
ID : 16
Format : UTF-8
Codec ID : S_TEXT/UTF8
Codec ID/Info : UTF-8 Plain Text
Title : Full
Language : Russian
Default : No
Forced : No
Text #3
ID : 17
Format : UTF-8
Codec ID : S_TEXT/UTF8
Codec ID/Info : UTF-8 Plain Text
Title : Full
Language : English
Default : No
Forced : No
Menu
00:00:00.000 : :Chapter 01
00:00:25.191 : :Chapter 02
00:04:14.087 : :Chapter 03
00:05:24.699 : :Chapter 04
00:10:31.881 : :Chapter 05
00:16:20.479 : :Chapter 06
00:23:38.166 : :Chapter 07
00:28:52.814 : :Chapter 08
00:32:34.077 : :Chapter 09
00:36:01.075 : :Chapter 10
00:40:01.482 : :Chapter 11
00:46:34.917 : :Chapter 12
00:49:52.364 : :Chapter 13
00:55:11.725 : :Chapter 14
00:56:38.103 : :Chapter 15
00:59:36.614 : :Chapter 16
01:05:58.037 : :Chapter 17
01:09:25.035 : :Chapter 18
01:12:41.565 : :Chapter 19
01:19:29.723 : :Chapter 20
01:22:11.801 : :Chapter 21
01:26:24.179 : :Chapter 22
Скриншоты
Скачать

Скачать торрент!

Как скачивать? · Что такое торрент? · Рейтинг и ограничения

Сайт не распространяет и не хранит электронные версии произведений, а лишь предоставляет доступ к создаваемому пользователями каталогу ссылок на торрент-файлы, которые содержат только списки хеш-сумм

[Профиль] [ЛС]
Показать сообщения:    
Ответить на тему

Текущее время: Сегодня 07:07

Часовой пояс: GMT + 4



Вы не можете начинать темы
Вы не можете отвечать на сообщения
Вы не можете редактировать свои сообщения
Вы не можете удалять свои сообщения
Вы не можете голосовать в опросах
Вы не можете прикреплять файлы к сообщениям
Вы не можете скачивать файлы