Луна 44 / Moon 44 (Роланд Эммерих / Roland Emmerich) [1990, Германия, фантастика, боевик, BDRip 1080p] Dub (Советский дубляж) + 4х MVO (CP Digital, Первый канал, ТВЦ, Нева-1) + Ukr + Sub Rus, Eng + Original Eng

Ответить на тему
 
Автор Сообщение

user ®

Стаж: 7 лет 7 месяцев

Сообщений: 20008

Пост Пост: #1 от 17-Авг-2014 00:35

[Цитировать]

Луна 44 / Moon 44
Страна: Германия (ФРГ)
Жанр: фантастика, боевик, триллер
Год выпуска: 1990
Продолжительность: 01:39:18
-
Перевод 1: Профессиональный (дублированный) Советский дубляж
Перевод 2: Профессиональный (многоголосый закадровый) CP Digital
Перевод 3: Профессиональный (многоголосый закадровый) Первый канал
Перевод 4: Профессиональный (многоголосый закадровый) ТВЦ
Перевод 5: Профессиональный (многоголосый закадровый) Нева-1
Cубтитры: русские (Full) и английские (Full)
Оригинальная аудиодорожка: английский
-
Режиссер: Роланд Эммерих / Roland Emmerich
В ролях: Майкл Паре, Лиза Айкхорн, Дин Девлин, Брайан Томпсон, Малкольм МакДауэлл, Стивен Джеффрис, Леон Риппи, Йохен Никель, Мехмет Йилмаз, Джон Марч
-
Описание: Галактическая Горнодобывающая Корпорация получает информацию о том, что их роботы похищаются с Луны-44, и отправляет на станцию детектива Стоуна для расследования. Стоун вынужден действовать под прикрытием в качестве одного из заключенных, которых отправляют на Луну 44, чтобы пилотировать специальные вертолеты.Но он не знает, что командир станции майор Ли проинструктирован — в случае нападения на Луну-44 пожертвовать людьми ради спасения роботов. И когда детектив выслеживает предателей, ему приходится сражаться на два фронта, пытаясь спасти и людей, и роботов от уничтожения.
-

-
Сэмпл: https://www.sendspace.com/file/ohyol5
-
Тип релиза: BDRip 1080p
Контейнер: MKV
Видео: 1920x816p (2.35:1), 24.000 fps, 11044 kbps
Аудио 1: русский / AC3 / 2.0 / 48 kHz / 192 kbps / 16 bit || DUB - Советский дубляж
Аудио 2: русский / AC3 / 2.0 / 48 kHz / 448 kbps / 16 bit || MVO - CP Digital
Аудио 3: русский / AC3 / 2.0 / 48 kHz / 192 kbps / 16 bit || MVO - Первый канал
Аудио 4: русский / AC3 / 2.0 / 48 kHz / 192 kbps / 16 bit || MVO - ТВЦ
Аудио 5: русский / AC3 / 2.0 / 48 kHz / 192 kbps / 16 bit || MVO - Нева-1
Аудио 6: украинский / AC3 / 2.0 / 48 kHz / 192 kbps / 16 bit || DVO - Т/к 2+2
Аудио 7: английский / AC3 / 2.0 / 48 kHz / 192 kbps / 16 bit || ENG
Формат субтитров: softsub (SRT)
Главы: есть
Доп. информация
видео с рутора и аудио 1-3 и 6-7
4,5 - [url=http://***/forum/viewtopic.php?t=4608188]http://***/forum/viewtopic.php?t=4608188[/url]
Всем авторам спасибо.
MediaInfo
General
Unique ID : 208466886576768814455662840301587168746 (0x9CD5430DA82A2BA5927DD610F2667DEA)
Complete name : C:\Users\ALEX\Downloads\Фильмы\HD\Moon 44.1990.BDRip.1080р.5XRus.Ukr.Eng.Subs.Chpt.mkv
Format : Matroska
Format version : Version 4 / Version 2
File size : 8.76 GiB
Duration : 1h 39mn
Overall bit rate : 12.6 Mbps
Encoded date : UTC 2014-08-15 14:39:09
Writing application : mkvmerge v6.6.0 ('The Edge Of The In Between') built on Dec 1 2013 17:55:00
Writing library : libebml v1.3.0 + libmatroska v1.4.1
Video
ID : 1
Format : AVC
Format/Info : Advanced Video Codec
Format profile : High@L4.1
Format settings, CABAC : No
Format settings, ReFrames : 5 frames
Codec ID : V_MPEG4/ISO/AVC
Duration : 1h 39mn
Bit rate : 11.0 Mbps
Width : 1 920 pixels
Height : 816 pixels
Display aspect ratio : 2.35:1
Frame rate mode : Constant
Frame rate : 24.000 fps
Color space : YUV
Chroma subsampling : 4:2:0
Bit depth : 8 bits
Scan type : Progressive
Bits/(Pixel*Frame) : 0.294
Stream size : 7.48 GiB (85%)
Writing library : x264 core 138 r2358 9e941d1
Encoding settings : cabac=0 / ref=5 / deblock=1:-1:-1 / analyse=0x3:0x133 / me=umh / subme=10 / psy=1 / psy_rd=1.00:0.00 / mixed_ref=1 / me_range=32 / chroma_me=1 / trellis=2 / 8x8dct=1 / cqm=0 / deadzone=21,11 / fast_pskip=0 / chroma_qp_offset=-2 / threads=6 / lookahead_threads=1 / sliced_threads=0 / nr=0 / decimate=1 / interlaced=0 / bluray_compat=0 / constrained_intra=0 / bframes=8 / b_pyramid=2 / b_adapt=2 / b_bias=0 / direct=3 / weightb=1 / open_gop=0 / weightp=2 / keyint=240 / keyint_min=24 / scenecut=40 / intra_refresh=0 / rc_lookahead=50 / rc=2pass / mbtree=0 / bitrate=11044 / ratetol=2.0 / qcomp=1.00 / qpmin=0 / qpmax=51 / qpstep=4 / cplxblur=20.0 / qblur=0.5 / vbv_maxrate=50000 / vbv_bufsize=62500 / nal_hrd=none / ip_ratio=1.30 / pb_ratio=1.20 / aq=1:1.00
Language : English
Default : Yes
Forced : No
Color primaries : BT.709
Transfer characteristics : BT.709
Matrix coefficients : BT.709
Audio #1
ID : 2
Format : AC-3
Format/Info : Audio Coding 3
Mode extension : CM (complete main)
Format settings, Endianness : Big
Codec ID : A_AC3
Duration : 1h 39mn
Bit rate mode : Constant
Bit rate : 192 Kbps
Channel(s) : 2 channels
Channel positions : Front: L R
Sampling rate : 48.0 KHz
Bit depth : 16 bits
Compression mode : Lossy
Stream size : 136 MiB (2%)
Title : Дубляж - VHS
Language : Russian
Default : Yes
Forced : No
Audio #2
ID : 3
Format : AC-3
Format/Info : Audio Coding 3
Mode extension : CM (complete main)
Format settings, Endianness : Big
Codec ID : A_AC3
Duration : 1h 39mn
Bit rate mode : Constant
Bit rate : 448 Kbps
Channel(s) : 2 channels
Channel positions : Front: L R
Sampling rate : 48.0 KHz
Bit depth : 16 bits
Compression mode : Lossy
Stream size : 318 MiB (4%)
Title : MVO - CP Digital
Language : Russian
Default : No
Forced : No
Audio #3
ID : 4
Format : AC-3
Format/Info : Audio Coding 3
Mode extension : CM (complete main)
Format settings, Endianness : Big
Codec ID : A_AC3
Duration : 1h 39mn
Bit rate mode : Constant
Bit rate : 192 Kbps
Channel(s) : 2 channels
Channel positions : Front: L R
Sampling rate : 48.0 KHz
Bit depth : 16 bits
Compression mode : Lossy
Stream size : 136 MiB (2%)
Title : MVO - Первый канал
Language : Russian
Default : No
Forced : No
Audio #4
ID : 5
Format : AC-3
Format/Info : Audio Coding 3
Mode extension : CM (complete main)
Format settings, Endianness : Big
Codec ID : A_AC3
Duration : 1h 39mn
Bit rate mode : Constant
Bit rate : 192 Kbps
Channel(s) : 2 channels
Channel positions : Front: L R
Sampling rate : 48.0 KHz
Bit depth : 16 bits
Compression mode : Lossy
Stream size : 136 MiB (2%)
Title : MVO - ТВЦ
Language : Russian
Default : No
Forced : No
Audio #5
ID : 6
Format : AC-3
Format/Info : Audio Coding 3
Mode extension : CM (complete main)
Format settings, Endianness : Big
Codec ID : A_AC3
Duration : 1h 39mn
Bit rate mode : Constant
Bit rate : 192 Kbps
Channel(s) : 2 channels
Channel positions : Front: L R
Sampling rate : 48.0 KHz
Bit depth : 16 bits
Compression mode : Lossy
Stream size : 136 MiB (2%)
Title : MVO - Нева-1
Language : Russian
Default : No
Forced : No
Audio #6
ID : 7
Format : AC-3
Format/Info : Audio Coding 3
Mode extension : CM (complete main)
Format settings, Endianness : Big
Codec ID : A_AC3
Duration : 1h 39mn
Bit rate mode : Constant
Bit rate : 192 Kbps
Channel(s) : 2 channels
Channel positions : Front: L R
Sampling rate : 48.0 KHz
Bit depth : 16 bits
Compression mode : Lossy
Stream size : 136 MiB (2%)
Title : DVO - 2+2
Language : Ukrainian
Default : No
Forced : No
Audio #7
ID : 8
Format : AC-3
Format/Info : Audio Coding 3
Mode extension : CM (complete main)
Format settings, Endianness : Big
Codec ID : A_AC3
Duration : 1h 39mn
Bit rate mode : Constant
Bit rate : 192 Kbps
Channel(s) : 2 channels
Channel positions : Front: L R
Sampling rate : 48.0 KHz
Bit depth : 16 bits
Compression mode : Lossy
Stream size : 136 MiB (2%)
Title : Оригинал
Language : English
Default : No
Forced : No
Text #1
ID : 9
Format : UTF-8
Codec ID : S_TEXT/UTF8
Codec ID/Info : UTF-8 Plain Text
Title : Full
Language : Russian
Default : No
Forced : No
Text #2
ID : 10
Format : UTF-8
Codec ID : S_TEXT/UTF8
Codec ID/Info : UTF-8 Plain Text
Title : Full
Language : English
Default : No
Forced : No
Menu
00:00:00.000 : en:00:00:00.000
00:05:45.292 : en:00:05:45.292
00:11:09.708 : en:00:11:09.708
00:14:59.000 : en:00:14:59.000
00:21:13.250 : en:00:21:13.250
00:24:47.917 : en:00:24:47.917
00:30:05.417 : en:00:30:05.417
00:37:56.417 : en:00:37:56.417
00:42:54.417 : en:00:42:54.417
00:46:18.375 : en:00:46:18.375
00:53:50.958 : en:00:53:50.958
01:00:58.583 : en:01:00:58.583
01:07:23.625 : en:01:07:23.625
01:13:34.125 : en:01:13:34.125
01:16:26.000 : en:01:16:26.000
01:23:39.375 : en:01:23:39.375
01:33:21.292 : en:01:33:21.292
01:35:46.833 : en:01:35:46.833
Скриншоты
Скачать

Скачать торрент!

Как скачивать? · Что такое торрент? · Рейтинг и ограничения

Сайт не распространяет и не хранит электронные версии произведений, а лишь предоставляет доступ к создаваемому пользователями каталогу ссылок на торрент-файлы, которые содержат только списки хеш-сумм

[Профиль] [ЛС]
Показать сообщения:    
Ответить на тему

Текущее время: Сегодня 03:12

Часовой пояс: GMT + 4



Вы не можете начинать темы
Вы не можете отвечать на сообщения
Вы не можете редактировать свои сообщения
Вы не можете удалять свои сообщения
Вы не можете голосовать в опросах
Вы не можете прикреплять файлы к сообщениям
Вы не можете скачивать файлы