Ангел тьмы / Я пришёл с миром / Dark Angel / I Come in Peace (Крэйг Р. Баксли / Craig R. Baxley) [1990, США, фантастика, боевик, BDRip 720p] 2х MVO (Нева-1, РЕН-ТВ) + 2х DVO (НТВ+, Видеофильм) + 3x AVO + VO + Sub Rus, Eng + Original Eng

Ответить на тему
 
Автор Сообщение

user ®

Стаж: 7 лет 7 месяцев

Сообщений: 20008

Пост Пост: #1 от 17-Авг-2014 00:35

[Цитировать]

Ангел тьмы / Тёмный ангел / Чёрный ангел / Я пришёл с миром / Dark Angel / I Come in Peace
Страна: США
Жанр: ужасы, фантастика, боевик, триллер, драма, криминал
Год выпуска: 1990
Продолжительность: 01:31:56
-
Перевод 1: Профессиональный (многоголосый закадровый) Нева-1
Перевод 2: Профессиональный (многоголосый закадровый) РЕН-ТВ
Перевод 3: Профессиональный (двухголосый закадровый) НТВ+
Перевод 4: Профессиональный (двухголосый закадровый) Видеофильм
Перевод 5: Авторский (одноголосый закадровый) Андрей Гаврилов
Перевод 6: Авторский (одноголосый закадровый) Василий Горчаков
Перевод 7: Авторский (одноголосый закадровый) Сергей Визгунов
Перевод 8: Одноголосый Неизвестный
Cубтитры: русские и английские (Full)
Оригинальная аудиодорожка: английский
-
Режиссер: Крэйг Р. Баксли / Craig R. Baxley
В ролях: Дольф Лундгрен, Брайан Бенбен, Бетси Брэнтли, Маттиас Хьюз, Джей Билас, Джим Хейни, Дэвид Экройд, Шерман Ховард, Сэм Андерсон, Марк Ловенталь
-
Описание: Во время операции по задержанию наркоторговцев полицейский Джек Кейн теряет напарника и начинает расследование серии странных смертей — жертвы гибнут от невероятно большой дозы героина, хотя и не являются наркоманами. Вместе с приставленным к нему напыщенным агентом ФБР Джек приходит к удивительному выводу: убийца никто иной, как инопланетный преступник, буквально выкачивающий мозг у своих жертв...
-

-
Сэмпл: http://multi-up.com/992616
-
Тип релиза: BDRip 720p
Контейнер: MKV
Видео: 1 280x720p (16:9), 23.976 fps, 6 438 Kbps
Аудио 1: русский / AC3 / 2.0 / 48 kHz / 256 kbps / 16 bit || MVO - Нева-1
Аудио 2: русский / AC3 / 2.0 / 48 kHz / 192 kbps / 16 bit || MVO - РЕН-ТВ
Аудио 3: русский / AC3 / 2.0 / 48 kHz / 192 kbps / 16 bit || DVO - НТВ+
Аудио 4: русский / AC3 / 1.0 / 48 kHz / 192 kbps / 16 bit || DVO - Видеофильм
Аудио 5: русский / AC3 / 2.0 / 48 kHz / 224 kbps / 16 bit || AVO - Гаврилов
Аудио 6: русский / AC3 / 2.0 / 48 kHz / 192 kbps / 16 bit || AVO - Горчаков
Аудио 7: русский / AC3 / 2.0 / 48 kHz / 192 kbps / 16 bit || AVO - Визгунов
Аудио 8: русский / AC3 / 2.0 / 48 kHz / 192 kbps / 16 bit || VO
Аудио 9: русский / AC3 / 5.1 / 48 kHz / 640 kbps / 16 bit || ENG
Формат субтитров: softsub (SRT)
Главы: есть
Доп. информация
видео с рутора и аудио тоже, кроме
7 - [url=http://***/forum/viewtopic.php?p=61400953#61400953]http://***/forum/viewtopic.php?p=61400953#61400953[/url]
Всем авторам спасибо.
MediaInfo
General
Unique ID : 241005923138157795929073262420579291263 (0xB5500D6B0BD9458088900E9CE3C7907F)
Complete name : C:\Users\ALEX\Downloads\Фильмы\HD\Dark Angel.I Come in Peace.1990.BDRip.720p.8XRus.Eng.Subs.Chpt.mkv
Format : Matroska
Format version : Version 4 / Version 2
File size : 5.59 GiB
Duration : 1h 31mn
Overall bit rate : 8 711 Kbps
Movie name : Ангел тьмы | Dark angel [1990] -=BDRip (720p)
Encoded date : UTC 2014-08-15 17:19:59
Writing application : mkvmerge v6.6.0 ('The Edge Of The In Between') built on Dec 1 2013 17:55:00
Writing library : libebml v1.3.0 + libmatroska v1.4.1
Video
ID : 1
Format : AVC
Format/Info : Advanced Video Codec
Format profile : High@L4.1
Format settings, CABAC : Yes
Format settings, ReFrames : 8 frames
Codec ID : V_MPEG4/ISO/AVC
Duration : 1h 31mn
Bit rate : 6 438 Kbps
Width : 1 280 pixels
Height : 720 pixels
Display aspect ratio : 16:9
Frame rate mode : Constant
Frame rate : 23.976 fps
Color space : YUV
Chroma subsampling : 4:2:0
Bit depth : 8 bits
Scan type : Progressive
Bits/(Pixel*Frame) : 0.291
Stream size : 4.02 GiB (72%)
Title : Rip by 0ptimus
Writing library : x264 core 133 r2334 a3ac64b
Encoding settings : cabac=1 / ref=8 / deblock=1:-3:-3 / analyse=0x3:0x113 / me=umh / subme=11 / psy=1 / psy_rd=1.00:0.20 / mixed_ref=1 / me_range=48 / chroma_me=1 / trellis=2 / 8x8dct=1 / cqm=0 / deadzone=21,11 / fast_pskip=0 / chroma_qp_offset=-3 / threads=4 / lookahead_threads=1 / sliced_threads=0 / nr=0 / decimate=0 / interlaced=0 / bluray_compat=0 / constrained_intra=0 / bframes=11 / b_pyramid=2 / b_adapt=2 / b_bias=0 / direct=3 / weightb=1 / open_gop=0 / weightp=2 / keyint=240 / keyint_min=23 / scenecut=40 / intra_refresh=0 / rc_lookahead=40 / rc=2pass / mbtree=0 / bitrate=6438 / ratetol=1.0 / qcomp=0.60 / qpmin=0 / qpmax=69 / qpstep=4 / cplxblur=20.0 / qblur=0.5 / vbv_maxrate=50000 / vbv_bufsize=50000 / nal_hrd=none / ip_ratio=1.40 / pb_ratio=1.30 / aq=1:1.00
Language : English
Default : Yes
Forced : No
Audio #1
ID : 2
Format : AC-3
Format/Info : Audio Coding 3
Mode extension : CM (complete main)
Format settings, Endianness : Big
Codec ID : A_AC3
Duration : 1h 31mn
Bit rate mode : Constant
Bit rate : 256 Kbps
Channel(s) : 2 channels
Channel positions : Front: L R
Sampling rate : 48.0 KHz
Bit depth : 16 bits
Compression mode : Lossy
Stream size : 168 MiB (3%)
Title : Многоголосый закадровый [Нева-1] AC3 2.0 @ 256 kbps
Language : Russian
Default : Yes
Forced : No
Audio #2
ID : 3
Format : AC-3
Format/Info : Audio Coding 3
Mode extension : CM (complete main)
Format settings, Endianness : Big
Codec ID : A_AC3
Duration : 1h 31mn
Bit rate mode : Constant
Bit rate : 192 Kbps
Channel(s) : 2 channels
Channel positions : Front: L R
Sampling rate : 48.0 KHz
Bit depth : 16 bits
Compression mode : Lossy
Stream size : 126 MiB (2%)
Title : Многоголосый закадровый [РЕН ТВ] AC3 2.0 @ 192 kbps
Language : Russian
Default : No
Forced : No
Audio #3
ID : 4
Format : AC-3
Format/Info : Audio Coding 3
Mode extension : CM (complete main)
Format settings, Endianness : Big
Codec ID : A_AC3
Duration : 1h 31mn
Bit rate mode : Constant
Bit rate : 192 Kbps
Channel(s) : 2 channels
Channel positions : Front: L R
Sampling rate : 48.0 KHz
Bit depth : 16 bits
Compression mode : Lossy
Stream size : 126 MiB (2%)
Title : Двухголосый закадровый [НТВ+] AC3 2.0 @ 192 kbps
Language : Russian
Default : No
Forced : No
Audio #4
ID : 5
Format : AC-3
Format/Info : Audio Coding 3
Mode extension : CM (complete main)
Format settings, Endianness : Big
Codec ID : A_AC3
Duration : 1h 31mn
Bit rate mode : Constant
Bit rate : 192 Kbps
Channel(s) : 1 channel
Channel positions : Front: C
Sampling rate : 48.0 KHz
Bit depth : 16 bits
Compression mode : Lossy
Stream size : 126 MiB (2%)
Title : Двухголосый закадровый [Видеофильм] AC3 2.0 @ 192 kbps
Language : Russian
Default : No
Forced : No
Audio #5
ID : 6
Format : AC-3
Format/Info : Audio Coding 3
Mode extension : CM (complete main)
Format settings, Endianness : Big
Codec ID : A_AC3
Duration : 1h 31mn
Bit rate mode : Constant
Bit rate : 224 Kbps
Channel(s) : 2 channels
Channel positions : Front: L R
Sampling rate : 48.0 KHz
Bit depth : 16 bits
Compression mode : Lossy
Stream size : 147 MiB (3%)
Title : Авторский [Андрей Гаврилов] AC3 2.0 @ 224 kbps
Language : Russian
Default : No
Forced : No
Audio #6
ID : 7
Format : AC-3
Format/Info : Audio Coding 3
Mode extension : CM (complete main)
Format settings, Endianness : Big
Codec ID : A_AC3
Duration : 1h 31mn
Bit rate mode : Constant
Bit rate : 192 Kbps
Channel(s) : 2 channels
Channel positions : Front: L R
Sampling rate : 48.0 KHz
Bit depth : 16 bits
Compression mode : Lossy
Stream size : 126 MiB (2%)
Title : Авторский [Василий Горчаков] AC3 2.0 @ 192 kbps
Language : Russian
Default : No
Forced : No
Audio #7
ID : 8
Format : AC-3
Format/Info : Audio Coding 3
Mode extension : CM (complete main)
Format settings, Endianness : Big
Codec ID : A_AC3
Duration : 1h 31mn
Bit rate mode : Constant
Bit rate : 192 Kbps
Channel(s) : 2 channels
Channel positions : Front: L R
Sampling rate : 48.0 KHz
Bit depth : 16 bits
Compression mode : Lossy
Stream size : 126 MiB (2%)
Title : Авторский [Сергей Визгунов] AC3 2.0 @ 192 kbps
Language : Russian
Default : No
Forced : No
Audio #8
ID : 9
Format : AC-3
Format/Info : Audio Coding 3
Mode extension : CM (complete main)
Format settings, Endianness : Big
Codec ID : A_AC3
Duration : 1h 31mn
Bit rate mode : Constant
Bit rate : 192 Kbps
Channel(s) : 2 channels
Channel positions : Front: L R
Sampling rate : 48.0 KHz
Bit depth : 16 bits
Compression mode : Lossy
Stream size : 126 MiB (2%)
Title : Одноголосый AC3 2.0 @ 192 kbps
Language : Russian
Default : No
Forced : No
Audio #9
ID : 10
Format : AC-3
Format/Info : Audio Coding 3
Mode extension : CM (complete main)
Format settings, Endianness : Big
Codec ID : A_AC3
Duration : 1h 31mn
Bit rate mode : Constant
Bit rate : 640 Kbps
Channel(s) : 6 channels
Channel positions : Front: L C R, Side: L R, LFE
Sampling rate : 48.0 KHz
Bit depth : 16 bits
Compression mode : Lossy
Stream size : 421 MiB (7%)
Title : AC3 5.1 @ 640 kbps
Language : English
Default : No
Forced : No
Text #1
ID : 11
Format : UTF-8
Codec ID : S_TEXT/UTF8
Codec ID/Info : UTF-8 Plain Text
Title : Full
Language : Russian
Default : No
Forced : No
Text #2
ID : 12
Format : UTF-8
Codec ID : S_TEXT/UTF8
Codec ID/Info : UTF-8 Plain Text
Title : Full
Language : English
Default : No
Forced : No
Menu
00:00:00.000 : en:
00:07:55.224 : en:
00:18:17.763 : en:
00:24:57.162 : en:
00:31:18.751 : en:
00:37:22.073 : en:
00:45:20.884 : en:
00:51:28.668 : en:
00:57:35.660 : en:
01:03:44.320 : en:
01:09:32.126 : en:
01:18:56.940 : en:
Скриншоты
Скачать

Скачать торрент!

Как скачивать? · Что такое торрент? · Рейтинг и ограничения

Сайт не распространяет и не хранит электронные версии произведений, а лишь предоставляет доступ к создаваемому пользователями каталогу ссылок на торрент-файлы, которые содержат только списки хеш-сумм

[Профиль] [ЛС]
Показать сообщения:    
Ответить на тему

Текущее время: Сегодня 12:53

Часовой пояс: GMT + 4



Вы не можете начинать темы
Вы не можете отвечать на сообщения
Вы не можете редактировать свои сообщения
Вы не можете удалять свои сообщения
Вы не можете голосовать в опросах
Вы не можете прикреплять файлы к сообщениям
Вы не можете скачивать файлы