Она расчёсывается в полночь / Midnight Hair (Нинг Лиу / Ning Liu) [2014, Китай, триллер, ужасы, WEBRip] DVO + Sub (Eng, Chi)

Ответить на тему
 
Автор Сообщение

user ®

Стаж: 13 лет

Сообщений: 15071

Пост Пост: #1 от 16-Авг-2014 02:35

[Цитировать]

Она расчёсывается в полночь / Midnight Hair
Страна: Китай
Жанр: триллер, ужасы
Год выпуска: 2014
Продолжительность: 01:31:02-Перевод: Любительский (двухголосный закадровый [DeadSno & den904])
Cубтитры: английские+китайские
Оригинальная аудиодорожка: нет-Режиссер: Нинг Лиу / Ning Liu-В ролях: Ванли Данни, Ли Вей, Янг Цзытон, Суй Гуйтян, Лу Сюан, Дай Янтян, Чжан Айли-Описание: Му (Ли Вей) и его беременная жена Сяомей (Ванли Данни) переезжают в большой загородный дом, который им предоставил на время давний друг Му по сиротскому приюту. Однако жизнь на новом месте сразу не заладилась – кажется, в доме водится какой-то призрак. Разумеется, не очень-то дружелюбный к не прошенным гостям.-Сэмпл: http://multi-up.com/992452-Качество видео: WEBRip
Формат видео: AVI
Видео: XviD, 720х304, 2,35:1, 25,000 кадров/сек, 1998 Кбит/сек
Аудио: АС 3, 48,0 КГц, 192 Кбит/сек, 2 канала: Front: L R
Формат субтитров:Eng+Chi hardsub (неотключаемые)

MediaInfo
Формат : AVI
Формат/Информация : Audio Video Interleave
Размер файла : 1,40 Гбайт
Продолжительность : 1 ч. 31 м.
Общий поток : 2199 Кбит/сек
Программа кодирования : VirtualDubMod 1.5.10.3 | www.virtualdub-fr.org || (build 2550/release)
Библиотека кодирования : VirtualDubMod build 2550/release
Видео
Идентификатор : 0
Формат : MPEG-4 Visual
Профиль формата : Advanced Simple@L5
Параметр BVOP формата : 1
Параметр QPel формата : Нет
Параметр GMC формата : Без точки перехода
Параметр матрицы формата : Default (MPEG)
Идентификатор кодека : XVID
Идентификатор кодека/Подсказка : XviD
Продолжительность : 1 ч. 31 м.
Битрейт : 1998 Кбит/сек
Ширина : 720 пикселей
Высота : 304 пикселя
Соотношение сторон : 2,35:1
Частота кадров : 25,000 кадров/сек
Цветовое пространство : YUV
Субдискретизация насыщенности : 4:2:0
Битовая глубина : 8 бит
Тип развёртки : Прогрессивная
Метод сжатия : С потерями
Бит/(Пиксели*Кадры) : 0.365
Размер потока : 1,27 Гбайт (91%)
Библиотека кодирования : XviD 1.2.1 (UTC 2008-12-04)
Аудио
Идентификатор : 1
Формат : AC-3
Формат/Информация : Audio Coding 3
Расширение режима : CM (complete main)
Параметр Endianness формата : Big
Идентификатор кодека : 2000
Продолжительность : 1 ч. 31 м.
Вид битрейта : Постоянный
Битрейт : 192 Кбит/сек
Каналы : 2 канала
Расположение каналов : Front: L R
Частота : 48,0 КГц
Битовая глубина : 16 бит
Метод сжатия : С потерями
Размер потока : 125 Мбайт (9%)
Выравнивание : Разделение по промежуткам
Продолжительность промежутка : 40 мс. (1,00 видеокадр)
Время предзагрузки промежутка : 500 мс.
Скриншот c названием фильма Скриншоты
Скачать

Скачать торрент! Она расчёсывается в полночь / Midnight Hair (Нинг Лиу / Ning Liu) [2014, Китай, триллер, ужасы, WEBRip] DVO + Sub (Eng, Chi)

Как скачивать? · Что такое торрент? · Рейтинг и ограничения

Сайт не распространяет и не хранит электронные версии произведений, а лишь предоставляет доступ к создаваемому пользователями каталогу ссылок на торрент-файлы, которые содержат только списки хеш-сумм

[Профиль] [ЛС]
Показать сообщения:    
Ответить на тему

Текущее время: Сегодня 11:16

Часовой пояс: GMT + 4



Вы не можете начинать темы
Вы не можете отвечать на сообщения
Вы не можете редактировать свои сообщения
Вы не можете удалять свои сообщения
Вы не можете голосовать в опросах
Вы не можете прикреплять файлы к сообщениям
Вы не можете скачивать файлы